Торрент файл
скачать торрент магнет ссылка Добавлен: 24 дек 2015, 11:35
Размер: 3.69 ГБ
Сидеров: 2279
Личеров: 164
Автор

СообщениеДобавлено: 24 дек 2015, 11:35 

Не в сети
Зам. Админа
Аватара пользователя
Дата регистрации:
02 дек 2010, 12:39
Спасибо: 12623 / 214
Сообщения: 28012


Информация о фильме
Название: Монстры на каникулах 2
Оригинальное название: Hotel Transylvania 2
Год выхода: 2015
Жанр: мультфильм, фэнтези, комедия, семейный
Режиссер: Генндий Тартаковский
В ролях: Адам Сэндлер, Энди Сэмберг, Селена Гомес, Кевин Джеймс, Стив Бушеми, Дэвид Спейд, Кигэн-Майкл Ки, Эшер Блинкофф, Фрэн Дрешер, Молли Шеннон

О фильме:
Граф Дракула выдает свою очаровательную дочь замуж за парня из мира людей, и у молодой «смешанной» пары рождается сын. Станет ли этот ребенок человеком или вампиром?



Страна: США
Студия: Columbia Pictures, LStar Capital, Sony Pictures Animation
Продолжительность: 01:29:48
Перевод: Профессиональный (дублированный) iTunes Russia

Файл
Формат: Matroska
Видео: 1920x1028 at 23.976 fps, MPEG-4 AVC, ~5000 kbps avg
Aудио#1: Russian: 48 kHz, AC3, 3/2 (L,C,R,l,r) + LFE ch, ~384.00 kbps avg |Дубляж, iTunes Russia|
Aудио#2: English: 48 kHz, AC3, 3/2 (L,C,R,l,r) + LFE ch, ~384.00 kbps avg
Субтитры: None

Общее
Уникальный идентификатор : 221295971825332056635701413013188320305 (0xA67C0DCA7E8BB976BDF8C79F6FF91C31)
Полное имя : M0HCtRy.2.2015.D.WEB-DL.1080p.mkv
Формат : Matroska
Версия формата : Version 4 / Version 2
Размер файла : 3,69 Гбайт
Продолжительность : 1 ч. 29 м.
Общий поток : 5882 Кбит/сек
Дата кодирования : UTC 2015-12-23 19:05:18
Программа кодирования : mkvmerge v8.3.0 ('Over the Horizon') 64bit
Библиотека кодирования : libebml v1.3.1 + libmatroska v1.4.2

Видео
Идентификатор : 1
Формат : AVC
Формат/Информация : Advanced Video Codec
Профиль формата : High@L4
Параметр CABAC формата : Да
Параметр ReFrames формата : 4 кадра
Идентификатор кодека : V_MPEG4/ISO/AVC
Битрейт : 4997 Кбит/сек
Ширина : 1920 пикселей
Высота : 1028 пикселей
Соотношение сторон : 1,85:1
Режим частоты кадров : Переменный
Цветовое пространство : YUV
Субдискретизация насыщенности : 4:2:0
Битовая глубина : 8 бит
Тип развёртки : Прогрессивная
Язык : English
Default : Да
Forced : Нет
Цветовой диапазон : Limited
Основные цвета : BT.709
Характеристики трансфера : BT.709
Коэффициенты матрицы : BT.709

Аудио #1
Идентификатор : 2
Формат : AC-3
Формат/Информация : Audio Coding 3
Расширение режима : CM (complete main)
Параметр Endianness формата : Big
Идентификатор кодека : A_AC3
Продолжительность : 1 ч. 29 м.
Вид битрейта : Постоянный
Битрейт : 384 Кбит/сек
Каналы : 6 каналов
Расположение каналов : Front: L C R, Side: L R, LFE
Частота : 48,0 КГц
Метод сжатия : С потерями
Размер потока : 247 Мбайт (7%)
Язык : Russian
Default : Да
Forced : Нет

Аудио #2
Идентификатор : 3
Формат : AC-3
Формат/Информация : Audio Coding 3
Расширение режима : CM (complete main)
Параметр Endianness формата : Big
Идентификатор кодека : A_AC3
Продолжительность : 1 ч. 29 м.
Вид битрейта : Постоянный
Битрейт : 384 Кбит/сек
Каналы : 6 каналов
Расположение каналов : Front: L C R, Side: L R, LFE
Частота : 48,0 КГц
Метод сжатия : С потерями
Размер потока : 247 Мбайт (7%)
Язык : English
Default : Нет
Forced : Нет

Меню
00:00:00.000 : en:1
00:05:45.000 : en:2
00:09:16.000 : en:3
00:13:07.000 : en:4
00:19:26.000 : en:5
00:22:40.000 : en:6
00:30:02.000 : en:7
00:36:09.000 : en:8
00:39:57.000 : en:9
00:45:50.000 : en:10
00:51:18.000 : en:11
00:56:50.000 : en:12
01:03:57.000 : en:13
01:08:27.000 : en:14
01:13:24.000 : en:15
01:18:30.000 : en:16




реклама партнёра


Вернуться к началу
 Профиль  
 
   Похожие торренты   Автор   Торрент   Размер 
В этой теме нет новых непрочитанных сообщений. Монстры на каникулах 2 / Hotel Transylvania 2 (Генндий Тартаковский) [мультфильм, фэнтези, комедия, семейный, 2015] WEB-DL 720p, Dub [iTunes]

Dracon

1084 | 84

2.98 ГБ

В этой теме нет новых непрочитанных сообщений. Монстры на каникулах 2 / Hotel Transylvania 2 (Генндий Тартаковский) [мультфильм, фэнтези, комедия, семейный, 2015] WED-DLRip-AVC, Dub [Лицензия / iTunes]

Dracon

607 | 221

1.58 ГБ

В этой теме нет новых непрочитанных сообщений. Монстры на каникулах 2 / Hotel Transylvania 2 (Генндий Тартаковский) [мультфильм, фэнтези, комедия, семейный, 2015] BDRip 1080p, Dub+Sub [Лицензия]

Dracon

426 | 77

5.99 ГБ

В этой теме нет новых непрочитанных сообщений. Монстры на каникулах 2 / Hotel Transylvania 2 (Генндий Тартаковский) [мультфильм, фэнтези, комедия, семейный, 2015] BDRip, Dub [Лицензия]

Dracon

497 | 12

1.46 ГБ

В этой теме нет новых непрочитанных сообщений. Монстры на каникулах 2 / Hotel Transylvania 2 (Генндий Тартаковский) [мультфильм, фэнтези, комедия, семейный, 2015] BDRip 720p, Dub+Sub [Лицензия]

Dracon

345 | 56

3.57 ГБ

В этой теме нет новых непрочитанных сообщений. Монстры на каникулах 2 / Hotel Transylvania 2 [мультфильм, фэнтези, комедия, семейный, 2015] BDRip-AVC, Dub+Sub [Лицензия]

Dracon

380 | 49

1.46 ГБ

В этой теме нет новых непрочитанных сообщений. Монстры на каникулах 2 / Hotel Transylvania 2 (2015) BDRip [H.265/1080p-LQ]

marya111

18 | 3

3.21 ГБ


Начать новую тему Ответить на тему  [ 1 сообщение ] 




Для Мосгорсуда, Роскомнадзора и рекламодателей:: mosgorsud-torrent[собачка]yandex.ru