Торрент файл
скачать торрент магнет ссылка Добавлен: 26 ноя 2015, 21:48
Размер: 4.37 ГБ
Сидеров: 259
Личеров: 30
Автор

СообщениеДобавлено: 26 ноя 2015, 21:48 

Не в сети
Зам. Админа
Аватара пользователя
Дата регистрации:
02 дек 2010, 12:39
Спасибо: 12461 / 214
Сообщения: 27968
«Нет слов, одни эмоции»



Год выпуска: 2015
Производство: США / Walt Disney Pictures, Pixar Animation Studios
Жанр: Мультфильм, семейный, комедия

Режиссеры: Пит Доктер, Роналдо Дель Кармен
Продюсеры: Джонас Ривера, Джон Лассетер, Марк Нилсен
Роли озвучивали: Эми Полер, Филлис Смит, Ричард Кайнд, Билл Хейдер, Льюис Блэк, Минди Кейлинг, Кейтлин Диас, Дайан Лэйн, Кайл МакЛоклен, Пола Паундстон

Описание :
Райли — обычная 11-летняя школьница, и, как у каждого из нас, ее поведение определяют пять базовых эмоций: Радость, Печаль, Страх, Гнев и Брезгливость. Эмоции живут в сознании девочки и каждый день помогают ей справляться с проблемами, руководя всеми ее поступками. До поры до времени эмоции живут дружно, но вдруг оказывается, что Райли и ее родителям предстоит переезд из небольшого уютного городка в шумный и людный мегаполис. Каждая из эмоций считает, что именно она лучше прочих знает, что нужно делать в этой непростой ситуации, и в голове у девочки наступает полная неразбериха. Чтобы наладить жизнь в большом городе, освоиться в новой школе и подружиться с одноклассниками, эмоциям Райли предстоит снова научиться работать сообща.

Перевод: Дублированный
Субтитры: Английские, русские

Дата мировой премьеры: 18 мая 2015
Дата российской премьеры: 18 июня 2015, «WDSSPR»


Продолжительность: 01:30:49
Качество видео: DVD5
Видео: MPEG-2, 720x576@1024x576 (PAL 16:9), ~5900 Кбит/сек
Аудио 1: AC3 5.1, 384 Кбит/сек [Английский - оригинал]
Аудио 2: AC3 5.1, 448 Кбит/сек [Русский - дублированный]

Title: Inside Out (2015) DVD5 PAL
Size: 4.37 Gb ( 4 578 678,00 KBytes ) - DVD-5
Enabled regions: 1, 2, 3, 4, 5, 6, 7, 8

VTS_01 :
Play Length: 01:30:49+{01:30:49}+{01:30:49}
Video: PAL 16:9 (720x576) VBR, Auto Letterboxed
Audio:
English (Dolby AC3, 6 ch)
Russian (Dolby AC3, 6 ch)
Subtitles:
English
Russian
English

* Menus Information *

VIDEO_TS Menu
Video:
PAL 16:9 (720x576) VBR
Auto Pan&Scan
English Language Unit :
Title Menu

VTS_01 Menu
Video:
PAL 16:9 (720x576) VBR
Auto Pan&Scan
Audio:
Not specified (Dolby AC3, 2 ch)
English Language Unit :
Root Menu
Audio Menu
Angle menu
Chapter (PTT) Menu
Общее
Полное имя : G:ВидеоInside Out (2015) DVD5 PALVIDEO_TSVTS_01_2.VOB
Формат : MPEG-PS
Размер файла : 1024 Мбайт
Продолжительность : 20 м.
Режим общего битрейта : Переменный
Общий поток : 6926 Кбит/сек

Видео
Идентификатор : 224 (0xE0)
Формат : MPEG Video
Версия формата : Version 2
Профиль формата : Main@Main
Параметр BVOP формата : Да
Параметр матрицы формата : Выборочная
Параметр GOP формата : Variable
Продолжительность : 20 м.
Вид битрейта : Переменный
Битрейт : 5956 Кбит/сек
Максимальный битрейт : 8426 Кбит/сек
Ширина : 720 пикселей
Высота : 576 пикселей
Соотношение сторон : 16:9
Частота кадров : 25,000 кадров/сек
Стандарт вещания : PAL
Цветовое пространство : YUV
Субдискретизация насыщенности : 4:2:0
Битовая глубина : 8 бит
Тип развёртки : Прогрессивная
Порядок развёртки : Верхнее поле первое
Метод сжатия : С потерями
Бит/(Пиксели*Кадры) : 0.575
Временной код первого кадра : 00:20:57:00
Оригинал временного кода : Group of pictures header
Размер потока : 880 Мбайт (86%)

Аудио #1
Идентификатор : 189 (0xBD)-128 (0x80)
Формат : AC-3
Формат/Информация : Audio Coding 3
Расширение режима : CM (complete main)
Параметр Endianness формата : Big
Режим смешивания : DVD-Video
Продолжительность : 20 м.
Вид битрейта : Постоянный
Битрейт : 384 Кбит/сек
Каналы : 6 каналов
Расположение каналов : Front: L C R, Side: L R, LFE
Частота : 48,0 КГц
Битовая глубина : 16 бит
Метод сжатия : С потерями
Задержка видео : -632 мс.
Размер потока : 56,8 Мбайт (6%)

Аудио #2
Идентификатор : 189 (0xBD)-129 (0x81)
Формат : AC-3
Формат/Информация : Audio Coding 3
Расширение режима : CM (complete main)
Параметр Endianness формата : Big
Режим смешивания : DVD-Video
Продолжительность : 20 м.
Вид битрейта : Постоянный
Битрейт : 448 Кбит/сек
Каналы : 6 каналов
Расположение каналов : Front: L C R, Side: L R, LFE
Частота : 48,0 КГц
Битовая глубина : 16 бит
Метод сжатия : С потерями
Задержка видео : -632 мс.
Размер потока : 66,2 Мбайт (6%)

Текст #1
Идентификатор : 189 (0xBD)-32 (0x20)
Формат : RLE
Формат/Информация : Run-length encoding
Режим смешивания : DVD-Video
Продолжительность : 20 м.
Задержка видео : 1 с. 40 мс.

Текст #2
Идентификатор : 189 (0xBD)-33 (0x21)
Формат : RLE
Формат/Информация : Run-length encoding
Режим смешивания : DVD-Video
Продолжительность : 20 м.
Задержка видео : 1 с. 40 мс.

Текст #3
Идентификатор : 189 (0xBD)-34 (0x22)
Формат : RLE
Формат/Информация : Run-length encoding
Режим смешивания : DVD-Video
Продолжительность : 20 м.
Задержка видео : 1 с. 0 мс.

Текст #4
Идентификатор : 189 (0xBD)-35 (0x23)
Формат : RLE
Формат/Информация : Run-length encoding
Режим смешивания : DVD-Video
Продолжительность : 20 м.
Задержка видео : 1 с. 0 мс.

Меню

Исходник: Головоломка / Inside Out (2015) DVD9 | Custom
Удалены: доп. материалы, звуковая дорожка AC3 2.0
Команды диска переписаны заново, оставлен один VTS.
Видео сжато на 14,1%
Меню: статичное, недействующие кнопки затерты и закрыты.
Обработка и сжатие: DVD ReMake Pro + DVD Rebuilder + CCE SP2 [7 проходов] + Работа с меню (Adobe PhotoShop и MuxMan).




реклама партнёра


Вернуться к началу
 Профиль  
 
   Похожие торренты   Автор   Торрент   Размер 
В этой теме нет новых непрочитанных сообщений. Головоломка / Inside Out (Пит Доктер, Роналдо Дель Кармен) [мультфильм, драма, комедия, семейный, 2015] WEB-DL 720p, Dub [iTunes]

Dracon

2253 | 162

2.88 ГБ

В этой теме нет новых непрочитанных сообщений. Головоломка / Inside Out (Пит Доктер, Роналдо Дель Кармен) [мультфильм, драма, комедия, семейный, 2015] HDRip, Dub [iTunes]

Dracon

6291 | 407

1.37 ГБ

В этой теме нет новых непрочитанных сообщений. Головоломка / Inside Out (Пит Доктер, Роналдо Дель Кармен) [мультфильм, драма, комедия, семейный, 2015] WEB-DL 1080p, Dub+Sub [iTunes]

Dracon

8956 | 817

3.7 ГБ

В этой теме нет новых непрочитанных сообщений. Головоломка / Inside Out (Пит Доктер, Роналдо Дель Кармен) [мультфильм, драма, комедия, семейный, 2015] WEB-DLRip, Dub [iTunes]

Dracon

4852 | 563

1.37 ГБ

В этой теме нет новых непрочитанных сообщений. Головоломка / Inside Out (Пит Доктер, Роналдо Дель Кармен) [Мультфильм, комедия, полнометражный, 2015] Blu-Ray, Dub+Sub [2-х дисковое издание | Лицензия]

Dracon

40 | 65

56.68 ГБ

В этой теме нет новых непрочитанных сообщений. Головоломка / Inside Out (Пит Доктер, Роналдо Дель Кармен) [Мультфильм, комедия, полнометражный, 2015] BDRip 1080p, Dub+Sub [Лицензия]

Dracon

225 | 17

8.19 ГБ

В этой теме нет новых непрочитанных сообщений. Головоломка / Inside Out (Пит Доктер, Роналдо Дель Кармен) [Мультфильм, комедия, полнометражный, 2015] BDRip 720p, Dub+Sub [Лицензия]

Dracon

186 | 85

5.54 ГБ


Начать новую тему Ответить на тему  [ 1 сообщение ] 




Для Мосгорсуда, Роскомнадзора и рекламодателей:: mosgorsud-torrent[собачка]yandex.ru