Торрент файл
скачать торрент магнет ссылка Добавлен: 15 ноя 2015, 21:34
Размер: 1.46 ГБ
Сидеров: 751
Личеров: 195
Автор

СообщениеДобавлено: 15 ноя 2015, 21:34 

Не в сети
Зам. Админа
Аватара пользователя
Дата регистрации:
02 дек 2010, 12:39
Спасибо: 12461 / 214
Сообщения: 27968
Миньоны
Minions

«Ой, всё»






Год выпуска: 2015
Страна: США
Жанр: мультфильм, комедия, семейный
Продолжительность: 01:30:58

Перевод: Профессиональный (полное дублирование) [Лицензия BD CEE]
Субтитры: русские (forced), русские (full), украинские (full), английские (full), английские (SDH)
Оригинальная аудиодорожка: нет

Режиссер: Кайл Балда / Kyle Balda, Пьер Коффан / Pierre Coffin

В ролях: Сандра Буллок, Джон Хэмм, Майкл Китон, Эллисон Дженни, Стив Куган, Дженнифер Сондерс, Джеффри Раш, Стив Карелл, Пьер Коффан, Кэти Миксон, Майкл Битти, Хироюки Санада

Описание:
Миньоны живут на планете гораздо дольше нас. У них одна навязчивая идея - служить самой Гадкой личности из имеющихся в наличии. Динозавры, фараоны, Дракула, Наполеон - все они оказались недолговечны. И тогда миньоны рванули в Нью-Йорк. Их ждут деньги, власть, роковая суперзлодейка Скарлет Оверкилл и, конечно же, вкуснейшая «банана»! Во всяком случае, так им кажется.



Релиз:

Автор рипа: Stalker oK

Сэмпл

Качество видео: BDRip-AVC [Blu-ray 1080p]
Формат видео: MKV
Видео кодек: AVC
Аудио кодек: AC3
Видео: 1853 Кбит/сек, 960x518 (1.853), 23,976 кадр/сек, AVC
Аудио: русский, 448 Кбит/сек, 48 КГц, 16 бит, 5.1, AC3
Навигация по главам: есть


General
Unique ID : 253321861918207730118635164792378920124 (0xBE940414E190907EB4D561CFCAEC8CBC)
Complete name : M:RipsMinionsMinions.2015.BDRip-AVC.Dub.1.45Gb...stalkerok.new-team.mkv
Format : Matroska
File size : 1.46 GiB
Duration : 1h 30mn
Overall bit rate : 2 303 Kbps
Movie name : Minions (2015) (New-Team) (Rip by Stalker oK)
Encoded date : UTC 2015-11-15 16:29:54
Writing application : mkvmerge v7.9.0 ('Birds') 64bit
Writing library : libebml v1.3.1 + libmatroska v1.4.2

Video
ID : 1
Format : AVC
Format/Info : Advanced Video Codec
Format profile : High@L4.1
Format settings, CABAC : Yes
Format settings, ReFrames : 13 frames
Codec ID : V_MPEG4/ISO/AVC
Duration : 1h 30mn
Bit rate : 1 853 Kbps
Width : 960 pixels
Height : 518 pixels
Display aspect ratio : 1.853
Frame rate : 23.976 fps
Color space : YUV
Chroma subsampling : 4:2:0
Bit depth : 8 bits
Scan type : Progressive
Bits/(Pixel*Frame) : 0.155
Stream size : 1.15 GiB (79%)
Writing library : x264 core 146 r2538kMod 121396c
Encoding settings : cabac=1 / ref=13 / deblock=1:-1:-1 / analyse=0x3:0x133 / me=umh / subme=11 / psy=1 / fade_compensate=0.00 / psy_rd=1.00:0.08 / mixed_ref=1 / me_range=48 / chroma_me=1 / trellis=2 / 8x8dct=1 / cqm=0 / deadzone=21,11 / fast_pskip=0 / chroma_qp_offset=-3 / threads=12 / lookahead_threads=3 / sliced_threads=0 / nr=0 / decimate=0 / interlaced=0 / bluray_compat=0 / constrained_intra=0 / fgo=0 / bframes=14 / b_pyramid=2 / b_adapt=2 / b_bias=0 / direct=3 / weightb=1 / open_gop=0 / weightp=2 / keyint=240 / keyint_min=23 / scenecut=40 / intra_refresh=0 / rc_lookahead=60 / rc=2pass / mbtree=0 / bitrate=1853 / ratetol=1.0 / qcomp=0.70 / qpmin=0 / qpmax=69 / qpstep=4 / cplxblur=20.0 / qblur=0.5 / vbv_maxrate=50000 / vbv_bufsize=62500 / nal_hrd=none / filler=0 / ip_ratio=1.40 / pb_ratio=1.30 / aq=3:0.75
Language : English

Audio
ID : 2
Format : AC-3
Format/Info : Audio Coding 3
Mode extension : CM (complete main)
Codec ID : A_AC3
Duration : 1h 30mn
Bit rate mode : Constant
Bit rate : 448 Kbps
Channel(s) : 6 channels
Channel positions : Front: L C R, Side: L R, LFE
Sampling rate : 48.0 KHz
Bit depth : 16 bits
Compression mode : Lossy
Stream size : 291 MiB (19%)
Language : Russian

Text #1
ID : 3
Format : UTF-8
Codec ID : S_TEXT/UTF8
Codec ID/Info : UTF-8 Plain Text
Title : forced
Language : Russian

Text #2
ID : 4
Format : UTF-8
Codec ID : S_TEXT/UTF8
Codec ID/Info : UTF-8 Plain Text
Title : full
Language : Russian

Text #3
ID : 5
Format : UTF-8
Codec ID : S_TEXT/UTF8
Codec ID/Info : UTF-8 Plain Text
Title : full
Language : Ukrainian

Text #4
ID : 6
Format : UTF-8
Codec ID : S_TEXT/UTF8
Codec ID/Info : UTF-8 Plain Text
Title : full
Language : English

Text #5
ID : 7
Format : UTF-8
Codec ID : S_TEXT/UTF8
Codec ID/Info : UTF-8 Plain Text
Title : SDH
Language : English

Menu
00:00:00.000 : en:Chapter 1
00:05:39.839 : en:Chapter 2
00:11:28.938 : en:Chapter 3
00:16:55.139 : en:Chapter 4
00:22:28.430 : en:Chapter 5
00:26:59.034 : en:Chapter 6
00:32:54.639 : en:Chapter 7
00:37:28.871 : en:Chapter 8
00:40:58.831 : en:Chapter 9
00:45:29.309 : en:Chapter 10
00:49:24.086 : en:Chapter 11
00:53:43.053 : en:Chapter 12
00:57:04.921 : en:Chapter 13
01:01:36.943 : en:Chapter 14
01:05:54.700 : en:Chapter 15
01:07:55.237 : en:Chapter 16
01:11:19.149 : en:Chapter 17
01:15:32.653 : en:Chapter 18
01:21:12.826 : en:Chapter 19
01:28:24.757 : en:Chapter 20






реклама партнёра


Вернуться к началу
 Профиль  
 
   Похожие торренты   Автор   Торрент   Размер 
В этой теме нет новых непрочитанных сообщений. Миньоны / Minions (Кайл Балда, Пьер Соффин) [мультфильм, комедия, семейный, 2015] BDRip 1080p, Dub+Sub [Лицензия]

Dracon

798 | 533

12.1 ГБ

В этой теме нет новых непрочитанных сообщений. Миньоны / Minions (Кайл Балда, Пьер Соффин) [мультфильм, комедия, семейный, 2015] BDRip 720p, Dub+Sub [Лицензия]

Dracon

800 | 258

5.69 ГБ

В этой теме нет новых непрочитанных сообщений. Миньоны / Minions (Кайл Балда, Пьер Соффин) [мультфильм, комедия, семейный, 2015] BDRip 1080p, Dub+Sub [3D-Video | Лицензия]

Dracon

377 | 35

11.29 ГБ

В этой теме нет новых непрочитанных сообщений. Миньоны / Minions (Кайл Балда, Пьер Соффин) [мультфильм, комедия, семейный, 2015] Blu-Ray, Dub+Sub [Лицензия]

Dracon

44 | 111

39.11 ГБ

В этой теме нет новых непрочитанных сообщений. Миньоны / Minions (Кайл Балда, Пьер Соффин) [мультфильм, комедия, семейный, 2015] DVD5, Dub+Sub [Лицензия]

Dracon

128 | 30

4.37 ГБ

В этой теме нет новых непрочитанных сообщений. Миньоны / Minions (Кайл Балда, Пьер Соффин) [мультфильм, комедия, семейный, 2015] BDRip 1080p, Dub [iTunes]

Dracon

101 | 8

4.61 ГБ

В этой теме нет новых непрочитанных сообщений. Миньоны / Minions (Кайл Балда, Пьер Соффин) [мультфильм, комедия, семейный, 2015] BDRip 720p, Dub [iTunes]

Dracon

98 | 8

2.43 ГБ


Начать новую тему Ответить на тему  [ 1 сообщение ] 




Для Мосгорсуда, Роскомнадзора и рекламодателей:: mosgorsud-torrent[собачка]yandex.ru