Торрент файл
скачать торрент магнет ссылка Добавлен: 15 окт 2015, 11:10
Размер: 2.92 ГБ
Сидеров: 969
Личеров: 164
Автор

СообщениеДобавлено: 15 окт 2015, 11:10 

Не в сети
Зам. Админа
Аватара пользователя
Дата регистрации:
02 дек 2010, 12:39
Спасибо: 12461 / 214
Сообщения: 27968
Год выхода: 2015
Жанр: мультфильм, комедия, приключения, семейный
Режиссер: Дейк Донг
В ролях: Юньвэй Хэ, Ли Хуанг


О фильме: Победу в поединке сильнейших бойцов неожиданно одерживает неуклюжий с виду пушистый кролик, лучше других владеющий секретами древнего кунг-фу, после чего становится главным защитником деревни. Однако, не долго ему удается купаться в лучах славы и наслаждаться вниманием поклонников. Злодеи вознамерились выкрасть у кролика магический камень и тем самым лишить его силы. Сможет ли пушистый супергерой защитить деревню и противостоять злодеям без силы волшебного камня?

Выпущено: Китай / Shanghai Toonmax Media Co
Продолжительность: 01:35:29
Озвучивание: Дублированное [iTunes]

Формат: MKV
Качество: WEB-DL 720p
Видео: MPEG-4 AVC, 3908 kb/s, 1280x536
Аудио: AC3, 384 kb/s (6 ch)

Format : Matroska
Format version : Version 4 / Version 2
File size : 2.92 GiB
Duration : 1h 35mn
Overall bit rate : 4 379 Kbps
Encoded date : UTC 2015-10-14 20:12:12
Writing application : mkvmerge v6.0.0 ('Coming Up For Air') built on Jan 20 2013 09:52:00
Writing library : libebml v1.3.0 + libmatroska v1.4.0

Video
ID : 1
Format : AVC
Format/Info : Advanced Video Codec
Format profile : Main@L3.1
Format settings, CABAC : No
Format settings, ReFrames : 2 frames
Codec ID : V_MPEG4/ISO/AVC
Duration : 1h 35mn
Bit rate : 3 908 Kbps
Width : 1 280 pixels
Height : 536 pixels
Display aspect ratio : 2.40:1
Frame rate mode : Constant
Frame rate : 24.000 fps
Color space : YUV
Chroma subsampling : 4:2:0
Bit depth : 8 bits
Scan type : Progressive
Bits/(Pixel*Frame) : 0.237
Stream size : 2.61 GiB (89%)
Language : English
Default : Yes
Forced : No
Color range : Limited
Color primaries : BT.709
Transfer characteristics : BT.709
Matrix coefficients : BT.709

Audio
ID : 2
Format : AC-3
Format/Info : Audio Coding 3
Mode extension : CM (complete main)
Format settings, Endianness : Big
Codec ID : A_AC3
Duration : 1h 35mn
Bit rate mode : Constant
Bit rate : 384 Kbps
Channel(s) : 6 channels
Channel positions : Front: L C R, Side: L R, LFE
Sampling rate : 48.0 KHz
Bit depth : 16 bits
Compression mode : Lossy
Stream size : 262 MiB (9%)
Language : Russian
Default : Yes
Forced : No

Menu
00:00:00.000 : en:Глава 1
00:05:00.000 : en:Глава 2
00:11:09.000 : en:Глава 3
00:17:22.000 : en:Глава 4
00:22:23.000 : en:Глава 5
00:27:50.000 : en:Глава 6
00:33:19.000 : en:Глава 7
00:39:40.000 : en:Глава 8
00:45:38.000 : en:Глава 9
00:50:01.000 : en:Глава 10
00:55:19.000 : en:Глава 11
01:00:37.000 : en:Глава 12
01:05:55.000 : en:Глава 13
01:12:18.000 : en:Глава 14
01:18:02.000 : en:Глава 15
01:23:37.000 : en:Глава 16
01:30:10.000 : en:Глава 17




реклама партнёра


Вернуться к началу
 Профиль  
 
   Похожие торренты   Автор   Торрент   Размер 
В этой теме нет новых непрочитанных сообщений. Кунг-фу Кролик: Повелитель огня / Tu Xia Chuan Qi:Qing Li Chuan Shuo (Дейк Донг) [мультфильм, комедия, приключения, семейный, 2015] WEB-DLRip, Dub [iTunes]

Dracon

14631 | 975

1.37 ГБ

В этой теме нет новых непрочитанных сообщений. Кунг-фу Кролик: Повелитель огня / Tu Xia Chuan Qi: Qing Li Chuan Shuo (Дейк Донг) [мультфильм, комедия, приключения, семейный, 2015] WEB-DL 1080p, Dub [iTunes]

Dracon

1608 | 320

3.26 ГБ

В этой теме нет новых непрочитанных сообщений. Снупи и мелочь пузатая в кино [мультфильм, комедия, приключения, семейный, 2015] WEB-DL 720p, Dub [iTunes]

Dracon

64 | 4

2.97 ГБ

В этой теме нет новых непрочитанных сообщений. Дом / Home (Тим Джонсон) [мультфильм, фантастика, фэнтези, комедия, приключения, семейный, 2015] WEB-DL 720p, Dub [iTunes]

Dracon

0 | 0

3.12 ГБ

В этой теме нет новых непрочитанных сообщений. Дом / Home (Тим Джонсон) [мультфильм, фантастика, фэнтези, комедия, приключения, семейный, 2015] BDRip 720p, Dub [iTunes]

Dracon

22 | 0

3.53 ГБ

В этой теме нет новых непрочитанных сообщений. Кунг-фу Панда 3 / Kung Fu Panda 3 [2015, мультфильм, боевик, комедия, приключения, семейный, WEBRip | Чистый звук] Dub

marya111

0 | 2

1.37 ГБ

В этой теме нет новых непрочитанных сообщений. Губка Боб в 3D / The SpongeBob Movie: Sponge Out of Water (Пол Тиббит) [мультфильм, комедия, приключения, семейный, 2015] WEB-DL 720p, Dub [iTunes]

Dracon

105 | 4

2.87 ГБ


Начать новую тему Ответить на тему  [ 1 сообщение ] 




Для Мосгорсуда, Роскомнадзора и рекламодателей:: mosgorsud-torrent[собачка]yandex.ru