Торрент файл
скачать торрент магнет ссылка Добавлен: 24 окт 2015, 09:58
Размер: 2.28 ГБ
Сидеров: 12
Личеров: 1
Автор

СообщениеДобавлено: 14 окт 2015, 11:18 

Не в сети
Зам. Админа
Аватара пользователя
Дата регистрации:
02 дек 2010, 12:39
Спасибо: 12461 / 214
Сообщения: 27968
Год выхода: 2015
Жанр: мультфильм, комедия
Режиссер: Алексей Миронов, Артур Толстобров, Кирилл Кравченко
В ролях: Андрей Рожков

О фильме:
Анимационный сериал рассказывает о приключениях бумажных героев — лося по имени Аристотель и дятла по имени Тюк-тюк — в Бумажной стране, где все сделано только из бумаги, картона и канцелярских атрибутов (скотч, скрепки и т. д.). Каждая серия является отдельным увлекательным приключением, которое разворачивается вокруг новой поделки из бумаги. Приключение перемежается вставками «для умелых рук» (по одной на серию), из которых зрители узнают как из бумаги и картона при помощи ножниц и клея можно самому сделать бумажную поделку или нового персонажа. Таким образом, зритель вовлекается в своеобразную игру, предполагающую творчество и развитие многих полезных навыков, отвлекающих детей от увлечения компьютером.


Страна: Россия
Студия: студия Паровоз
Продолжительность: ~00:05:00 серия
Перевод: Не требуется

Кодек: XviD / AC3
Качество: SATRip
Видео: MPEG4, XviD, 720x400 (16:9), 25.000 fps, 1 700 Kbps (0.236 bit/pixel)
Звук: AC-3, 48.0 KHz, 2 ch, 192 Kbps, CBR
General
Complete name : 01. Заяц или Кот.avi
Format : AVI
Format/Info : Audio Video Interleave
File size : 74.8 MiB
Duration : 5mn 29s
Overall bit rate : 1 902 Kbps
Director : SATRip by Thunder
Writing application : VirtualDubMod 1.5.10.3 | http://www.virtualdub-fr.org || (build 2550/release)
Original source form/Name : Cartoon

Video
ID : 0
Format : MPEG-4 Visual
Format profile : Advanced Simple@L5
Format settings, BVOP : 1
Format settings, QPel : No
Format settings, GMC : No warppoints
Format settings, Matrix : Default (H.263)
Codec ID : XVID
Codec ID/Hint : XviD
Duration : 5mn 29s
Bit rate : 1 700 Kbps
Width : 720 pixels
Height : 400 pixels
Display aspect ratio : 16:9
Frame rate : 25.000 fps
Color space : YUV
Chroma subsampling : 4:2:0
Bit depth : 8 bits
Scan type : Progressive
Compression mode : Lossy
Bits/(Pixel*Frame) : 0.236
Stream size : 66.8 MiB (89%)
Writing library : XviD 1.2.1 (UTC 2008-12-04)

Audio
ID : 1
Format : AC-3
Format/Info : Audio Coding 3
Mode extension : CM (complete main)
Format settings, Endianness : Big
Codec ID : 2000
Duration : 5mn 29s
Bit rate mode : Constant
Bit rate : 192 Kbps
Channel(s) : 2 channels
Channel positions : Front: L R
Sampling rate : 48.0 KHz
Bit depth : 16 bits
Compression mode : Lossy
Stream size : 7.55 MiB (10%)
Alignment : Split accross interleaves
Interleave, duration : 40 ms (1.00 video frame)
Interleave, preload duration : 500 ms




реклама партнёра


Вернуться к началу
 Профиль  
 
   Похожие торренты   Автор   Торрент   Размер 
В этой теме нет новых непрочитанных сообщений. Бумажки [01-62] (Мультсериал, детский, семейный, приключения, 2015-2016) WEB-DLRip 1080p от ExKinoRay

marya111

0 | 0

5.33 ГБ

В этой теме нет новых непрочитанных сообщений. Между нами, девочками [01-20 из 20] (Алексей Кирющенко) [Лирическая комедия, 2015] SATRip

Dracon

336 | 190

10.09 ГБ

В этой теме нет новых непрочитанных сообщений. Семейный бизнес [2 сезон 1-8 серия из 20] (Алексей Чистиков) [комедия, 2015] SATRip

Dracon

В этой теме нет новых непрочитанных сообщений. Семейный бизнес [2 сезон 1-12 серия из 20] (Алексей Чистиков) [комедия, 2015] SATRip

Dracon

5 | 5

3.94 ГБ

В этой теме нет новых непрочитанных сообщений. Время Г [01-09] (Кирилл Пухонто) [Юмористическое, информационное, ток-шоу, 2015] SATRip

Dracon

17 | 4

2.97 ГБ

В этой теме нет новых непрочитанных сообщений. Время Г [01-13] (Кирилл Пухонто) [Юмористическое, информационное, ток-шоу, 2015] SATRip

Dracon

47 | 35

4.43 ГБ

В этой теме нет новых непрочитанных сообщений. Время Г [01-12] (Кирилл Пухонто) [Юмористическое, информационное, ток-шоу, 2015] SATRip

marya111

0 | 0

4.06 ГБ


СообщениеДобавлено: 24 окт 2015, 09:58 

Не в сети
Зам. Админа
Аватара пользователя
Дата регистрации:
02 дек 2010, 12:39
Спасибо: 12461 / 214
Сообщения: 27968
Dracon писал(а):
Re: Бумажки [01-31] (Алексей Миронов, Артур Толстобров, Кирилл Кравченко) [мультфильм, комедия, 2015] SATRip


Вернуться к началу
 Профиль  
 
Начать новую тему Ответить на тему  [ Сообщений: 2 ] 




Для Мосгорсуда, Роскомнадзора и рекламодателей:: mosgorsud-torrent[собачка]yandex.ru