Торрент файл
скачать торрент магнет ссылка Добавлен: 05 сен 2015, 15:29
Размер: 2.19 ГБ
Сидеров: 212
Личеров: 37
Автор

СообщениеДобавлено: 05 сен 2015, 15:29 

Не в сети
Зам. Админа
Аватара пользователя
Дата регистрации:
02 дек 2010, 12:39
Спасибо: 12623 / 214
Сообщения: 28012
Год выхода: 2013
Жанр: мультфильм, мюзикл, фэнтези, драма, мелодрама, приключения
Режиссер: Стефан Берла, Матиас Мальзьё
В ролях: Матиас Мальзьё, Оливия Руис, Гран Кор Маляд, Жан Рошфор, Росси де Пальма, Babet, Мари Винсент, Эмили Луазо, Артур Х., Дани

О фильме: Джек родился в Эдинбурге, в «самый холодный день на свете», и сердце его мгновенно оледенело. Брошенного матерью мальчика усыновляет акушерка-волшебница, Докторша Мадлен. Она вставляет ему в грудь часы, которые помогают сердцу биться, но влюбляться Джеку нельзя — такого пылкого чувства хрупкая сердечная механика не выдержит. Однако подросший Джек невольно нарушает запрет, увидев на прогулке маленькую уличную певицу…



Выпущено: EuropaCorp, Duran, France 3 Cinéma
Продолжительность: 01:32:54
Перевод: Многоголосый закадровый (AlexFilm)

Кодек: x264
Качество: BDRip (источник: Blu-ray Disc)
Видео: 1280x690 (1,85:1), 24 fps, 2475 kbps
Аудио #1: AC-3, 6 ch, 448 kbps (Многоголосый закадровый, AlexFilm)
Аудио #2: AC-3, 6 ch, 448 kbps (Original)
Субтитры: Русские (форс,полные), Французские
Скачать: сэмпл
Общее
Уникальный идентификатор : 181243326805459533682163828019810266354 (0x885A31ED959898FDBB2816FC7393ECF2)
Полное имя : Jack.et.la.mecanique.du.coeur.2013.BDRip.720p.Rus.Fre.mkv
Формат : Matroska
Версия формата : Version 2
Размер файла : 2,19 Гбайт
Продолжительность : 1 ч. 32 м.
Общий поток : 3373 Кбит/сек
Название фильма : Механика сердца / Jack et la mécanique du coeur (2013)
Дата кодирования : UTC 2015-09-05 08:42:40
Программа кодирования : mkvmerge v5.8.0 ('No Sleep / Pillow') built on Sep 2 2012 15:37:04
Библиотека кодирования : libebml v1.2.3 + libmatroska v1.3.0

Видео
Идентификатор : 1
Формат : AVC
Формат/Информация : Advanced Video Codec
Профиль формата : High@L4.1
Параметр CABAC формата : Да
Параметр ReFrames формата : 7 кадров
Идентификатор кодека : V_MPEG4/ISO/AVC
Продолжительность : 1 ч. 32 м.
Битрейт : 2475 Кбит/сек
Ширина : 1280 пикселей
Высота : 690 пикселей
Соотношение сторон : 1,85:1
Режим частоты кадров : Постоянный
Частота кадров : 24,000 кадра/сек
Цветовое пространство : YUV
Субдискретизация насыщенности : 4:2:0
Битовая глубина : 8 бит
Тип развёртки : Прогрессивная
Бит/(Пиксели*Кадры) : 0.117
Размер потока : 1,56 Гбайт (71%)
Заголовок : Release by AlexKa
Библиотека кодирования : x264 core 148 r2597 e86f3a1
Настройки программы : cabac=1 / ref=7 / deblock=1:0:0 / analyse=0x3:0x133 / me=umh / subme=11 / psy=1 / psy_rd=1.00:0.00 / mixed_ref=1 / me_range=32 / chroma_me=1 / trellis=2 / 8x8dct=1 / cqm=0 / deadzone=21,11 / fast_pskip=0 / chroma_qp_offset=-2 / threads=12 / lookahead_threads=2 / sliced_threads=0 / nr=0 / decimate=0 / interlaced=0 / bluray_compat=0 / constrained_intra=0 / bframes=9 / b_pyramid=2 / b_adapt=2 / b_bias=0 / direct=3 / weightb=1 / open_gop=0 / weightp=2 / keyint=240 / keyint_min=24 / scenecut=40 / intra_refresh=0 / rc=2pass / mbtree=0 / bitrate=2475 / ratetol=1.0 / qcomp=0.60 / qpmin=0 / qpmax=69 / qpstep=4 / cplxblur=20.0 / qblur=0.5 / ip_ratio=1.40 / pb_ratio=1.30 / aq=1:1.00
Язык : French

Аудио #1
Идентификатор : 2
Формат : AC-3
Формат/Информация : Audio Coding 3
Расширение режима : CM (complete main)
Параметр Endianness формата : Big
Идентификатор кодека : A_AC3
Продолжительность : 1 ч. 32 м.
Вид битрейта : Постоянный
Битрейт : 448 Кбит/сек
Каналы : 6 каналов
Расположение каналов : Front: L C R, Side: L R, LFE
Частота : 48,0 КГц
Метод сжатия : С потерями
Размер потока : 298 Мбайт (13%)
Заголовок : Многоголосый закадровый, AlexFilm
Язык : Russian

Аудио #2
Идентификатор : 3
Формат : AC-3
Формат/Информация : Audio Coding 3
Расширение режима : CM (complete main)
Параметр Endianness формата : Big
Идентификатор кодека : A_AC3
Продолжительность : 1 ч. 32 м.
Вид битрейта : Постоянный
Битрейт : 448 Кбит/сек
Каналы : 6 каналов
Расположение каналов : Front: L C R, Side: L R, LFE
Частота : 48,0 КГц
Метод сжатия : С потерями
Размер потока : 298 Мбайт (13%)
Заголовок : Original
Язык : French

Текст #1
Идентификатор : 4
Формат : UTF-8
Идентификатор кодека : S_TEXT/UTF8
Идентификатор кодека/Информация : UTF-8 Plain Text
Заголовок : Russian (На песни, AlexFilm)
Язык : Russian

Текст #2
Идентификатор : 5
Формат : UTF-8
Идентификатор кодека : S_TEXT/UTF8
Идентификатор кодека/Информация : UTF-8 Plain Text
Заголовок : Russian (Полные, AlexFilm)
Язык : Russian

Текст #3
Идентификатор : 6
Формат : UTF-8
Идентификатор кодека : S_TEXT/UTF8
Идентификатор кодека/Информация : UTF-8 Plain Text
Заголовок : French (Original)
Язык : French

Меню
00:00:00.000 : :Chapter 01
00:11:24.583 : :Chapter 02
00:21:13.041 : :Chapter 03
00:30:21.166 : :Chapter 04
00:40:46.291 : :Chapter 05
00:49:12.750 : :Chapter 06
00:58:49.416 : :Chapter 07
01:08:04.500 : :Chapter 08
01:16:35.416 : :Chapter 09
01:27:44.750 : :Chapter 10
x264 [info]: frame I:1232 Avg QP:13.70 size:110551
x264 [info]: frame P:34055 Avg QP:17.03 size: 25262
x264 [info]: frame B:98498 Avg QP:19.14 size: 7393
x264 [info]: consecutive B-frames: 2.4% 2.9% 27.0% 21.9% 17.7% 22.2% 2.8% 1.6% 0.9% 0.5%




реклама партнёра


Вернуться к началу
 Профиль  
 
   Похожие торренты   Автор   Торрент   Размер 
В этой теме нет новых непрочитанных сообщений. Джек в Стране Чудес / Jack and the Beanstalk [мультфильм, мюзикл, фэнтези, приключения, семейный, DVDRip, Mvo

salma3

26 | 4

1.45 ГБ

В этой теме нет новых непрочитанных сообщений. Механика теней / La mécanique de l'ombre [боевик, триллер, 2016] HDRip, Mvo

salma3

457 | 117

1.37 ГБ

В этой теме нет новых непрочитанных сообщений. Приключения олененка Рудольфа / Rudolph, the Red-Nosed Reindeer [мультфильм, мюзикл, фэнтези, приключения, семейный, 1964] BDRip 1080p, Mvo

salma3

7 | 4

3.62 ГБ

В этой теме нет новых непрочитанных сообщений. Тролли / Trolls [Мультфильм, мюзикл, фэнтези, 2016] BDRip 720p, Dub+Sub [Лицензия]

salma3

52 | 14

5.01 ГБ

В этой теме нет новых непрочитанных сообщений. Тролли / Trolls (мультфильм, мюзикл, фэнтези, 2016) BDRip HEVC 720p | iTunes

marya111

177 | 65

1.96 ГБ

В этой теме нет новых непрочитанных сообщений. Моана / Moana [мультфильм, мюзикл, фэнтези, комедия, 2016] BDRip 720p, Dub+Sub [Лицензия]

salma3

124 | 16

4.8 ГБ

В этой теме нет новых непрочитанных сообщений. Тролли / Trolls (мультфильм, мюзикл, фэнтези, комедия, приключения, семейный, 2016) BDRip от ExKinoRay | iTunes

marya111

190 | 47

1.42 ГБ


Начать новую тему Ответить на тему  [ 1 сообщение ] 




Для Мосгорсуда, Роскомнадзора и рекламодателей:: mosgorsud-torrent[собачка]yandex.ru