Торрент файл
скачать торрент магнет ссылка Добавлен: 07 июл 2015, 11:44
Размер: 4.89 ГБ
Сидеров: 1
Личеров: 1
Автор

СообщениеДобавлено: 07 июл 2015, 11:44 

Не в сети
Зам. Админа
Аватара пользователя
Дата регистрации:
02 дек 2010, 12:39
Спасибо: 12623 / 214
Сообщения: 28012
Год выхода: 2015
Жанр: мультфильм, фэнтези, приключения
Режиссер: Альберто Мар
В ролях: Рауль Араиса, Раймундо Армихо, Ямил Атала, Бруно Коронел, Магда Хинер, Себастьян Льяпур, Мойсес Иван Мора, Лорето Пералта, Salvador Reyes, Хорхе Ван Ранкин

О фильме: Вы помните, как все начиналось? Давным-давно в страну Оз прилетела юная героиня, ее звали Дороти, она смогла победить Коварную Ведьму Запада и добрая волшебница Глинда помогла ей вернуться домой. А друзья Дороти — Страшила, Железный Дровосек и Смелый Лев — стали правителями страны Оз. И все в волшебной стране было хорошо, пока Глинда по своей доброте не решила дать Коварной Ведьме Запада еще один шанс. Чары Злодейки поместили в метлу, а метлу передали Правителям. Но злая ведьма — есть злая ведьма, даже без своих чар… Знакомая с детства история, продолжение которой рассказывает маленькая летающая обезьянка, которая на самом деле не умеет летать и не хочет служить Коварной Ведьме Запада.

Качество: BDRip [1080p]
Видео: MPEG4 Video (H264), 1920x1040, 24.00fps,  7399 Кбит/сек
Аудио: AC3, 48000Hz, 6ch, 448 Кбит/сек
Продолжительность: 01:27:21
Перевод: Дублированный [Лицензия]
Общее
Уникальный идентификатор                 : 233038828290086764408638781339015632259 (0xAF51A55095C1CDFF8D46189B640CD583)
Полное имя                               : D:prislanoeOz.Nashestvie.Letuchih.Obezyan.2015.D.BDRip.1080p.mkv
Формат                                   : Matroska
Версия формата                           : Version 4 / Version 2
Размер файла                             : 4,89 Гбайт
Продолжительность                        : 1 ч. 27 м.
Общий поток                              : 8006 Кбит/сек
Название фильма                          : Oz.Nashestvie.Letuchih.Obezyan.2015.D.BDRip.1080p.ELEKTRI4KA.uniongang.tv
Дата кодирования                         : UTC 2015-07-06 12:24:36
Программа кодирования                    : mkvmerge v6.9.1 ('Blue Panther') 64bit built on Apr 18 2014 18:23:38
Библиотека кодирования                   : libebml v1.3.0 + libmatroska v1.4.1

Видео
Идентификатор                            : 1
Формат                                   : AVC
Формат/Информация                        : Advanced Video Codec
Профиль формата                          : High@L4.1
Параметр CABAC формата                   : Да
Параметр ReFrames формата                : 7 кадров
Идентификатор кодека                     : V_MPEG4/ISO/AVC
Продолжительность                        : 1 ч. 27 м.
Битрейт                                  : 7399 Кбит/сек
Ширина                                   : 1920 пикселей
Высота                                   : 1040 пикселей
Соотношение сторон                       : 1,85:1
Режим частоты кадров                     : Постоянный
Частота кадров                           : 24,000 кадра/сек
Цветовое пространство                    : YUV
Субдискретизация насыщенности            : 4:2:0
Битовая глубина                          : 8 бит
Тип развёртки                            : Прогрессивная
Бит/(Пиксели*Кадры)                      : 0.154
Размер потока                            : 4,51 Гбайт (92%)
Заголовок                                : Oz.Nashestvie.Letuchih.Obezyan.2015.D.BDRip.1080p.ELEKTRI4KA.uniongang.tv
Язык                                     : English
Default                                  : Да
Forced                                   : Нет
_STATISTICS_WRITING_APP                  : mkvmerge v7.7.0 ('Six Voices') 32bit built on Feb 28 2015 23:23:00
_STATISTICS_WRITING_DATE_UTC             : 2015-04-24 05:58:01
_STATISTICS_TAGS                         : BPS DURATION NUMBER_OF_FRAMES NUMBER_OF_BYTES
DURATION                                 : 01:27:21.296000000
NUMBER_OF_FRAMES                         : 125791
NUMBER_OF_BYTES                          : 4950808175

Аудио
Идентификатор                            : 2
Формат                                   : AC-3
Формат/Информация                        : Audio Coding 3
Расширение режима                        : CM (complete main)
Параметр Endianness формата              : Big
Идентификатор кодека                     : A_AC3
Продолжительность                        : 1 ч. 27 м.
Вид битрейта                             : Постоянный
Битрейт                                  : 448 Кбит/сек
Каналы                                   : 6 каналов
Расположение каналов                     : Front: L C R, Side: L R, LFE
Частота                                  : 48,0 КГц
Битовая глубина                          : 16 бит
Метод сжатия                             : С потерями
Размер потока                            : 280 Мбайт (6%)
Заголовок                                : Oz.Nashestvie.Letuchih.Obezyan.2015.D.BDRip.1080p.ELEKTRI4KA.uniongang.tv
Язык                                     : Russian
Default                                  : Да
Forced                                   : Нет








реклама партнёра


Вернуться к началу
 Профиль  
 
   Похожие торренты   Автор   Торрент   Размер 
В этой теме нет новых непрочитанных сообщений. Оз: Нашествие летучих обезьян / Guardianes de Oz (Альберто Мар) [мультфильм, фэнтези, приключения, 2015] BDRip 720p, Dub [Лицензия]

Dracon

20 | 1

2.63 ГБ

В этой теме нет новых непрочитанных сообщений. Оз: Нашествие летучих обезьян / Guardianes de Oz (Альберто Мар) [мультфильм, фэнтези, приключения, 2015] HDRip, Dub [Лицензия]

Dracon

2 | 1

1.46 ГБ

В этой теме нет новых непрочитанных сообщений. Оз: Нашествие летучих обезьян / Guardianes de Oz (Альберто Мар) [мультфильм, фэнтези, приключения, 2015] WEBRip, dub [чистый звук]

Dracon

1 | 2

1.37 ГБ

В этой теме нет новых непрочитанных сообщений. Дом / Home (Тим Джонсон) [мультфильм, фантастика, фэнтези, комедия, приключения, семейный, 2015] BDRip 1080p, Dub+Sub [лицензия]

Dracon

2 | 1

7.1 ГБ

В этой теме нет новых непрочитанных сообщений. Дом / Home (Тим Джонсон) [мультфильм, фантастика, фэнтези, комедия, приключения, семейный, 2015] BDRip 1080p, Dub+Sub [3D-Video | Лицензия]

Dracon

1019 | 133

8.84 ГБ

В этой теме нет новых непрочитанных сообщений. Дом / Home (Тим Джонсон) [мультфильм, фантастика, фэнтези, комедия, приключения, семейный, 2015] BDRip 1080p, Dub+Sub [3D-Video | Лицензия]

Dracon

355 | 14

9.53 ГБ

В этой теме нет новых непрочитанных сообщений. Хороший динозавр / The Good Dinosaur (мультфильм, фэнтези, комедия, приключения, семейный, 2015) BDRip 1080p от New-Team & qqss44 | Локализованная версия | Лицензия

marya111

65 | 21

5.75 ГБ


Начать новую тему Ответить на тему  [ 1 сообщение ] 




Для Мосгорсуда, Роскомнадзора и рекламодателей:: mosgorsud-torrent[собачка]yandex.ru