Торрент файл
скачать торрент магнет ссылка Добавлен: 07 июл 2015, 11:38
Размер: 2.63 ГБ
Сидеров: 1
Личеров: 1
Автор

СообщениеДобавлено: 07 июл 2015, 11:38 

Не в сети
Зам. Админа
Аватара пользователя
Дата регистрации:
02 дек 2010, 12:39
Спасибо: 12623 / 214
Сообщения: 28012
Год выхода: 2015
Жанр: мультфильм, фэнтези, приключения
Режиссер: Альберто Мар
В ролях: Рауль Араиса, Раймундо Армихо, Ямил Атала, Бруно Коронел, Магда Хинер, Себастьян Льяпур, Мойсес Иван Мора, Лорето Пералта, Salvador Reyes, Хорхе Ван Ранкин

О фильме:
Вы помните, как все начиналось? Давным-давно в страну Оз прилетела юная героиня, ее звали Дороти, она смогла победить Коварную Ведьму Запада и добрая волшебница Глинда помогла ей вернуться домой. А друзья Дороти — Страшила, Железный Дровосек и Смелый Лев — стали правителями страны Оз. И все в волшебной стране было хорошо, пока Глинда по своей доброте не решила дать Коварной Ведьме Запада еще один шанс. Чары Злодейки поместили в метлу, а метлу передали Правителям. Но злая ведьма — есть злая ведьма, даже без своих чар… Знакомая с детства история, продолжение которой рассказывает маленькая летающая обезьянка, которая на самом деле не умеет летать и не хочет служить Коварной Ведьме Запада.

Качество: BDRip [720p]
Видео: MPEG4, Video, (H264), 1280x688, 24fps, 3772 Kbps
Аудио: Dolby, AC3, 48000Hz, 6ch, 448kbps
Продолжительность: 01:27:21
Перевод: Дублированный [Лицензия]

Oz.Nashestvie.Letuchih.Obezyan.2015.D.BDRip.720p.mkv
Format                                   : Matroska
Format version                           : Version 4 / Version 2
File size                                : 2.63 GiB
Duration                                 : 1h 27mn
Overall bit rate                         : 4 305 Kbps
Encoded date                             : UTC 2015-07-06 12:23:51
Writing application                      : mkvmerge v6.9.1 ('Blue Panther') 64bit built on Apr 18 2014 18:23:38
Writing library                          : libebml v1.3.0 + libmatroska v1.4.1

Video
ID                                       : 1
Format                                   : AVC
Format/Info                              : Advanced Video Codec
Format profile                           : High@L4.1
Format settings, CABAC                   : Yes
Format settings, ReFrames                : 4 frames
Codec ID                                 : V_MPEG4/ISO/AVC
Duration                                 : 1h 27mn
Bit rate                                 : 3 772 Kbps
Width                                    : 1 280 pixels
Height                                   : 688 pixels
Display aspect ratio                     : 1.85:1
Frame rate mode                          : Constant
Frame rate                               : 24.000 fps
Color space                              : YUV
Chroma subsampling                       : 4:2:0
Bit depth                                : 8 bits
Scan type                                : Progressive
Bits/(Pixel*Frame)                       : 0.178
Stream size                              : 2.30 GiB (88%)
Language                                 : English
Default                                  : Yes
Forced                                   : No
_STATISTICS_WRITING_APP                  : mkvmerge v7.7.0 ('Six Voices') 32bit built on Feb 28 2015 23:23:00
_STATISTICS_WRITING_DATE_UTC             : 2015-04-24 05:57:10
_STATISTICS_TAGS                         : BPS DURATION NUMBER_OF_FRAMES NUMBER_OF_BYTES
DURATION                                 : 01:27:21.296000000
NUMBER_OF_FRAMES                         : 125791
NUMBER_OF_BYTES                          : 2526050883

Audio
ID                                       : 2
Format                                   : AC-3
Format/Info                              : Audio Coding 3
Mode extension                           : CM (complete main)
Format settings, Endianness              : Big
Codec ID                                 : A_AC3
Duration                                 : 1h 27mn
Bit rate mode                            : Constant
Bit rate                                 : 448 Kbps
Channel count                            : 6 channels
Channel positions                        : Front: L C R, Side: L R, LFE
Sampling rate                            : 48.0 KHz
Bit depth                                : 16 bits
Compression mode                         : Lossy
Stream size                              : 280 MiB (10%)
Language                                 : Russian
Default                                  : Yes
Forced                                   : No








реклама партнёра


Вернуться к началу
 Профиль  
 
   Похожие торренты   Автор   Торрент   Размер 
В этой теме нет новых непрочитанных сообщений. Оз: Нашествие летучих обезьян / Guardianes de Oz (Альберто Мар) [мультфильм, фэнтези, приключения, 2015] BDRip 1080p, Dub [Лицензия]

Dracon

1 | 1

4.89 ГБ

В этой теме нет новых непрочитанных сообщений. Оз: Нашествие летучих обезьян / Guardianes de Oz (Альберто Мар) [мультфильм, фэнтези, приключения, 2015] HDRip, Dub [Лицензия]

Dracon

2 | 1

1.46 ГБ

В этой теме нет новых непрочитанных сообщений. Оз: Нашествие летучих обезьян / Guardianes de Oz (Альберто Мар) [мультфильм, фэнтези, приключения, 2015] WEBRip, dub [чистый звук]

Dracon

1 | 2

1.37 ГБ

В этой теме нет новых непрочитанных сообщений. Дом / Home (Тим Джонсон) [мультфильм, фантастика, фэнтези, комедия, приключения, семейный, 2015] BDRip 720p, Dub+Sub [лицензия]

Dracon

0 | 1

4.8 ГБ

В этой теме нет новых непрочитанных сообщений. Дом / Home (Тим Джонсон) [мультфильм, фантастика, фэнтези, комедия, приключения, семейный, 2015] BDRip 1080p, Dub+Sub [лицензия]

Dracon

2 | 1

7.1 ГБ

В этой теме нет новых непрочитанных сообщений. Дом / Home (Тим Джонсон) [мультфильм, фантастика, фэнтези, комедия, приключения, семейный, 2015] BDRip 1080p, Dub+Sub [3D-Video | Лицензия]

Dracon

355 | 14

9.53 ГБ

В этой теме нет новых непрочитанных сообщений. Дом / Home (Тим Джонсон) [мультфильм, фантастика, фэнтези, комедия, приключения, семейный, 2015] BDRip 1080p, Dub+Sub [3D-Video | Лицензия]

Dracon

1019 | 133

8.84 ГБ


Начать новую тему Ответить на тему  [ 1 сообщение ] 




Для Мосгорсуда, Роскомнадзора и рекламодателей:: mosgorsud-torrent[собачка]yandex.ru