Торрент файл
скачать торрент магнет ссылка Добавлен: 06 июл 2015, 10:51
Размер: 7.1 ГБ
Сидеров: 2
Личеров: 0
Автор

СообщениеДобавлено: 06 июл 2015, 10:51 

Не в сети
Зам. Админа
Аватара пользователя
Дата регистрации:
02 дек 2010, 12:39
Спасибо: 12460 / 214
Сообщения: 27968
Год выхода: 2015
Жанр: Мультфильм, фантастика, фэнтези, комедия, приключения, семейный
Режиссер: Тим Джонсон
В ролях: Джим Парсонс, Рианна, Стив Мартин, Дженнифер Лопез, Мэтт Джонс, Брайан Степанек, Эйприл Стрюбинг, Стивен Кеарин, Лиза Стюарт, Эйприл Уинчелл

О фильме:
Захватив Землю, раса пришельцев Був тут же начинает заниматься её благоустройством и реорганизацией. «Не стоит благодарности!» — заявляют они землянам, собранным на время в отдельных резервациях. Находчивая и рисковая девочка по имени Дар, чудом сбежавшая от пришельцев, встречает на своем пути самого раздражающе-оптимистичного Бува по имени О, отвергнутого своими инопланетными собратьями. Этой, казалось бы, несовместимой парочке предстоит спасти нашу планету. Хорошо, что у них есть летающий автомобиль!



Качество: BDRip [1080p]
Видео: AVC, 1920x1040, 23.976 fps, 7562 Kbps
Аудио 1: DTS, 48 KHz, 6 ch, 768 Kbps [Русский, Дублированный]
Аудио 2: AC3, 48 KHz, 6 ch, 448 Kbps [Русский, Дублированный]
Аудио 3: AC3, 48 KHz, 6 ch, 448 Kbps [Украинский, Дублированный]
Аудио 4: DTS, 48 KHz, 6 ch, 1510 Kbps [Английский]
Продолжительность: 01:33:48
Перевод: Дублированный [Лицензия Blu-Ray CEE]
Субтитры: Русские, Украинские, Английские
Дополнительно: Сохранены оригинальные чаптеры как на Blu-Ray.

General
Unique ID                                : 189305533594953514471200762837294183625 (0x8E6AEB69855F68448F6FF8EE8040F4C9)
Complete name                            : D:Загрузки µTorrentHome.2015.BDRip.1080p.mkv
Format                                   : Matroska
Format version                           : Version 2
File size                                : 7.10 GiB
Duration                                 : 1h 33mn
Overall bit rate                         : 10.8 Mbps
Movie name                               : Home.2015
Encoded date                             : UTC 2015-07-04 21:31:36
Writing application                      : mkvmerge v7.9.0 ('Birds') 64bit
Writing library                          : libebml v1.3.1 + libmatroska v1.4.2

Video
ID                                       : 1
Format                                   : AVC
Format/Info                              : Advanced Video Codec
Format profile                           : High@L4.1
Format settings, CABAC                   : Yes
Format settings, ReFrames                : 4 frames
Codec ID                                 : V_MPEG4/ISO/AVC
Duration                                 : 1h 33mn
Bit rate                                 : 7 652 Kbps
Width                                    : 1 920 pixels
Height                                   : 1 040 pixels
Display aspect ratio                     : 1.85:1
Frame rate mode                          : Constant
Frame rate                               : 23.976 fps
Color space                              : YUV
Chroma subsampling                       : 4:2:0
Bit depth                                : 8 bits
Scan type                                : Progressive
Bits/(Pixel*Frame)                       : 0.160
Stream size                              : 4.87 GiB (69%)
Title                                    : Home.2015.BDRip.1080p
Writing library                          : x264 core 146 r2538 121396c
Encoding settings                        : cabac=1 / ref=4 / deblock=1:-3:-3 / analyse=0x3:0x33 / me=umh / subme=10 / psy=1 / psy_rd=1.00:0.00 / mixed_ref=1 / me_range=32 / chroma_me=1 / trellis=2 / 8x8dct=1 / cqm=0 / deadzone=21,11 / fast_pskip=0 / chroma_qp_offset=-2 / threads=12 / lookahead_threads=2 / sliced_threads=0 / nr=0 / decimate=0 / interlaced=0 / bluray_compat=0 / constrained_intra=0 / bframes=9 / b_pyramid=2 / b_adapt=2 / b_bias=0 / direct=3 / weightb=1 / open_gop=0 / weightp=2 / keyint=240 / keyint_min=23 / scenecut=40 / intra_refresh=0 / rc=2pass / mbtree=0 / bitrate=7652 / ratetol=1.0 / qcomp=0.60 / qpmin=0 / qpmax=69 / qpstep=4 / cplxblur=20.0 / qblur=0.5 / ip_ratio=1.40 / pb_ratio=1.30 / aq=3:0.90
Language                                 : English
Default                                  : Yes
Forced                                   : No

Audio #1
ID                                       : 2
Format                                   : DTS
Format/Info                              : Digital Theater Systems
Mode                                     : 16
Format settings, Endianness              : Big
Codec ID                                 : A_DTS
Duration                                 : 1h 33mn
Bit rate mode                            : Constant
Bit rate                                 : 768 Kbps
Channel(s)                               : 6 channels
Channel positions                        : Front: L C R, Side: L R, LFE
Sampling rate                            : 48.0 KHz
Bit depth                                : 24 bits
Compression mode                         : Lossy
Stream size                              : 515 MiB (7%)
Title                                    : DTS_768@Blu-Ray CEE
Language                                 : Russian
Default                                  : Yes
Forced                                   : No

Audio #2
ID                                       : 3
Format                                   : AC-3
Format/Info                              : Audio Coding 3
Mode extension                           : CM (complete main)
Format settings, Endianness              : Big
Codec ID                                 : A_AC3
Duration                                 : 1h 33mn
Bit rate mode                            : Constant
Bit rate                                 : 448 Kbps
Channel(s)                               : 6 channels
Channel positions                        : Front: L C R, Side: L R, LFE
Sampling rate                            : 48.0 KHz
Bit depth                                : 16 bits
Compression mode                         : Lossy
Stream size                              : 301 MiB (4%)
Title                                    : AC3_448@Blu-Ray CEE
Language                                 : Russian
Default                                  : No
Forced                                   : No

Audio #3
ID                                       : 4
Format                                   : AC-3
Format/Info                              : Audio Coding 3
Mode extension                           : CM (complete main)
Format settings, Endianness              : Big
Codec ID                                 : A_AC3
Duration                                 : 1h 33mn
Bit rate mode                            : Constant
Bit rate                                 : 448 Kbps
Channel(s)                               : 6 channels
Channel positions                        : Front: L C R, Side: L R, LFE
Sampling rate                            : 48.0 KHz
Bit depth                                : 16 bits
Compression mode                         : Lossy
Stream size                              : 301 MiB (4%)
Title                                    : AC3_448@Blu-Ray CEE
Language                                 : Ukrainian
Default                                  : No
Forced                                   : No

Audio #4
ID                                       : 5
Format                                   : DTS
Format/Info                              : Digital Theater Systems
Format profile                           : ES
Mode                                     : 16
Format settings, Endianness              : Big
Codec ID                                 : A_DTS
Duration                                 : 1h 33mn
Bit rate mode                            : Constant
Bit rate                                 : 1 509 Kbps
Channel(s)                               : 6 channels
Channel positions                        : Front: L C R, Side: L R, LFE
Sampling rate                            : 48.0 KHz
Bit depth                                : 24 bits
Compression mode                         : Lossy
Stream size                              : 1 012 MiB (14%)
Title                                    : Original
Language                                 : English
Default                                  : No
Forced                                   : No

Text #1
ID                                       : 6
Format                                   : UTF-8
Codec ID                                 : S_TEXT/UTF8
Codec ID/Info                            : UTF-8 Plain Text
Language                                 : Russian
Default                                  : No
Forced                                   : No

Text #2
ID                                       : 7
Format                                   : UTF-8
Codec ID                                 : S_TEXT/UTF8
Codec ID/Info                            : UTF-8 Plain Text
Language                                 : Ukrainian
Default                                  : No
Forced                                   : No

Text #3
ID                                       : 8
Format                                   : UTF-8
Codec ID                                 : S_TEXT/UTF8
Codec ID/Info                            : UTF-8 Plain Text
Language                                 : English
Default                                  : No
Forced                                   : No

Menu
00:00:00.000                             : en:00:00:00.000
00:03:43.723                             : en:00:03:43.723
00:07:28.406                             : en:00:07:28.406
00:11:19.470                             : en:00:11:19.470
00:14:26.949                             : en:00:14:26.949
00:17:58.952                             : en:00:17:58.952
00:21:05.639                             : en:00:21:05.639
00:25:18.850                             : en:00:25:18.850
00:29:07.078                             : en:00:29:07.078
00:33:14.617                             : en:00:33:14.617
00:38:58.961                             : en:00:38:58.961
00:41:31.155                             : en:00:41:31.155
00:44:27.539                             : en:00:44:27.539
00:46:50.933                             : en:00:46:50.933
00:51:34.758                             : en:00:51:34.758
00:56:25.924                             : en:00:56:25.924
01:00:43.681                             : en:01:00:43.681
01:03:53.496                             : en:01:03:53.496
01:06:57.722                             : en:01:06:57.722
01:09:44.180                             : en:01:09:44.180
01:13:55.764                             : en:01:13:55.764
01:18:11.770                             : en:01:18:11.770
01:21:55.368                             : en:01:21:55.368
01:23:56.031                             : en:01:23:56.031













реклама партнёра


Вернуться к началу
 Профиль  
 
   Похожие торренты   Автор   Торрент   Размер 
В этой теме нет новых непрочитанных сообщений. Дом / Home (Тим Джонсон) [мультфильм, фантастика, фэнтези, комедия, приключения, семейный, 2015] BDRip 1080p, Dub+Sub [3D-Video | Лицензия]

Dracon

1047 | 138

8.84 ГБ

В этой теме нет новых непрочитанных сообщений. Дом / Home (Тим Джонсон) [мультфильм, фантастика, фэнтези, комедия, приключения, семейный, 2015] BDRip 1080p, Dub+Sub [3D-Video | Лицензия]

Dracon

362 | 14

9.53 ГБ

В этой теме нет новых непрочитанных сообщений. Дом / Home (Тим Джонсон) [мультфильм, фантастика, фэнтези, комедия, приключения, семейный, 2015] Blu-Ray 1080p, Dub+Sub [Лицензия]

Dracon

37 | 37

42.4 ГБ

В этой теме нет новых непрочитанных сообщений. Дом / Home (Тим Джонсон) [мультфильм, фантастика, фэнтези, комедия, приключения, семейный, 2015] Blu-Ray Remux 1080p, Dub+Sub [Лицензия]

Dracon

149 | 41

23.3 ГБ

В этой теме нет новых непрочитанных сообщений. Дом / Home (Тим Джонсон) [мультфильм, фантастика, фэнтези, комедия, приключения, семейный, 2015] Blu-Ray Remux 1080p, Dub+Sub [3D-Video | Лицензия]

Dracon

74 | 20

32.12 ГБ

В этой теме нет новых непрочитанных сообщений. Дом / Home (Тим Джонсон) [мультфильм, фантастика, фэнтези, комедия, приключения, семейный, 2015] BDRip 720p, Dub+Sub [лицензия]

Dracon

0 | 0

4.8 ГБ

В этой теме нет новых непрочитанных сообщений. Дом / Home (Тим Джонсон) [мультфильм, фантастика, фэнтези, комедия, приключения, семейный, 2015] BDRip 1080p, Dub [iTunes]

Dracon

67 | 6

4.62 ГБ


Начать новую тему Ответить на тему  [ 1 сообщение ] 




Для Мосгорсуда, Роскомнадзора и рекламодателей:: mosgorsud-torrent[собачка]yandex.ru