Торрент файл
скачать торрент магнет ссылка Добавлен: 05 июн 2015, 11:28
Размер: 5.43 ГБ
Сидеров: 1079
Личеров: 68
Автор

СообщениеДобавлено: 05 июн 2015, 11:28 

Не в сети
Зам. Админа
Аватара пользователя
Дата регистрации:
02 дек 2010, 12:39
Спасибо: 12460 / 214
Сообщения: 27968
Год выпуска: 2015
Жанр: Мультфильм, комедия, приключения, семейный
Выпущено: Великобритания, Франция, Aardman Animations, Anton Capital Entertainment (ACE), StudioCanal
Режиссер: Марк Бертон
В ролях: Джастин Флетчер, Джон Шпаркс, Омид Джалили, Ричард Веббер, Кейт Харбор, Тим Хэндс, Энди Найман, Саймон Гринхолл, Эмма Тейт, Джек Полсон

О фильме: Мирная жизнь маленькой овцефермы оказывается под угрозой, когда в результате очередной проказы неутомимого Барашка Шона хозяин фермы попадает в большой город. Вдоволь навеселившись полной свободой и безнаказанностью, Шон и остальное стадо барашков начинают волноваться за Фермера и решают отправиться на его спасение. Замаскировавшись под людей, они едут в большой город, где их ждет самое весёлое и эпическое приключение всей жизни.

Качество: BDRip 1080p
Видео: MPEG-4 AVC, 7000 Кбит/с, 1920x1040
Аудио: Русский (AC3, 6 ch, 640 Кбит/с), (DTS, 6 ch, 1510 Кбит/с)
Продолжительность: 01:21:33
Перевод: Не требуется [русский видеоряд]
Общее
Уникальный идентификатор : 193845591953423183409529780274130593718 (0x91D54D924380D762B298F00F3AB427B6)
Полное имя : D:Baranch1k.Sh0n.2015.BDRip.1080p_by_bog3417.mkv
Формат : Matroska
Версия формата : Version 2
Размер файла : 5,43 Гбайт
Продолжительность : 1 ч. 25 м.
Общий поток : 9152 Кбит/сек
Название фильма : Baranch1k.Sh0n_by_bog3417
Дата кодирования : UTC 2015-06-05 07:06:59
Программа кодирования : mkvmerge v7.9.0 ('Birds') 64bit
Библиотека кодирования : libebml v1.3.1 + libmatroska v1.4.2
Видео
Идентификатор : 1
Формат : AVC
Формат/Информация : Advanced Video Codec
Профиль формата : High@L4.1
Параметр CABAC формата : Да
Параметр ReFrames формата : 5 кадров
Идентификатор кодека : V_MPEG4/ISO/AVC
Продолжительность : 1 ч. 25 м.
Битрейт : 7000 Кбит/сек
Ширина : 1920 пикселей
Высота : 1040 пикселей
Соотношение сторон : 1,85:1
Режим частоты кадров : Постоянный
Частота кадров : 24,000 кадра/сек
Цветовое пространство : YUV
Субдискретизация насыщенности : 4:2:0
Битовая глубина : 8 бит
Тип развёртки : Прогрессивная
Бит/(Пиксели*Кадры) : 0.146
Размер потока : 4,05 Гбайт (75%)
Заголовок : Baranch1k.Sh0n_by_bog3417
Библиотека кодирования : x264 core 146 r2538 121396c
Настройки программы : cabac=1 / ref=5 / deblock=1:-3:-3 / analyse=0x3:0x33 / me=umh / subme=10 / psy=1 / psy_rd=1.00:0.14 / mixed_ref=1 / me_range=32 / chroma_me=1 / trellis=2 / 8x8dct=1 / cqm=0 / deadzone=21,11 / fast_pskip=0 / chroma_qp_offset=-3 / threads=12 / lookahead_threads=2 / sliced_threads=0 / nr=0 / decimate=0 / interlaced=0 / bluray_compat=0 / constrained_intra=0 / bframes=9 / b_pyramid=2 / b_adapt=2 / b_bias=0 / direct=3 / weightb=1 / open_gop=0 / weightp=2 / keyint=240 / keyint_min=24 / scenecut=40 / intra_refresh=0 / rc_lookahead=60 / rc=2pass / mbtree=1 / bitrate=7000 / ratetol=1.0 / qcomp=0.60 / qpmin=0 / qpmax=69 / qpstep=4 / cplxblur=20.0 / qblur=0.5 / ip_ratio=1.40 / aq=3:0.90
Язык : English
Default : Да
Forced : Нет
Аудио #1
Идентификатор : 2
Формат : AC-3
Формат/Информация : Audio Coding 3
Расширение режима : CM (complete main)
Параметр Endianness формата : Big
Идентификатор кодека : A_AC3
Продолжительность : 1 ч. 25 м.
Вид битрейта : Постоянный
Битрейт : 640 Кбит/сек
Каналы : 6 каналов
Расположение каналов : Front: L C R, Side: L R, LFE
Частота : 48,0 КГц
Метод сжатия : С потерями
Размер потока : 389 Мбайт (7%)
Язык : Russian
Default : Да
Forced : Нет
Аудио #2
Идентификатор : 3
Формат : DTS
Формат/Информация : Digital Theater Systems
Режим : 16
Параметр Endianness формата : Big
Идентификатор кодека : A_DTS
Продолжительность : 1 ч. 25 м.
Вид битрейта : Постоянный
Битрейт : 1510 Кбит/сек
Каналы : 6 каналов
Расположение каналов : Front: L C R, Side: L R, LFE
Частота : 48,0 КГц
Битовая глубина : 24 бит
Метод сжатия : С потерями
Размер потока : 918 Мбайт (16%)
Язык : Russian
Default : Нет
Forced : Нет
Меню
00:00:00.000 : en:00:00:00.000
00:05:01.708 : en:00:05:01.708
00:10:59.083 : en:00:10:59.083
00:19:31.375 : en:00:19:31.375
00:29:19.667 : en:00:29:19.667
00:40:05.750 : en:00:40:05.750
00:45:34.500 : en:00:45:34.500
00:49:38.167 : en:00:49:38.167
00:55:30.083 : en:00:55:30.083
00:59:39.000 : en:00:59:39.000
01:08:12.583 : en:01:08:12.583
01:15:39.458 : en:01:15:39.458








реклама партнёра


Вернуться к началу
 Профиль  
 
   Похожие торренты   Автор   Торрент   Размер 
В этой теме нет новых непрочитанных сообщений. Барашек Шон / Shaun the Sheep Movie (Марк Бертон) [Приключения, Семейный, Комедия, Мультфильм, 2015] BDRip 720p [Лицензия / русский видеоряд]

Dracon

39 | 1

3.86 ГБ

В этой теме нет новых непрочитанных сообщений. Барашек Шон / Shaun the Sheep Movie (Марк Бертон) [Приключения, Семейный, Комедия, Мультфильм, 2015] HDRip, [Лицензия / русский видеоряд]

Dracon

235 | 1

1.37 ГБ

В этой теме нет новых непрочитанных сообщений. Барашек Шон / Shaun the Sheep Movie (Марк Бертон) [Приключения, Семейный, Комедия, Мультфильм, 2015] WEB-DLRip 1080p, Dub [iTunes]

Dracon

27 | 5

3.21 ГБ

В этой теме нет новых непрочитанных сообщений. Барашек Шон / Shaun the Sheep Movie (Марк Бертон) [Приключения, Семейный, Комедия, Мультфильм, 2015] WEB-DLRip 720p, Dub [iTunes]

Dracon

1 | 1

2.54 ГБ

В этой теме нет новых непрочитанных сообщений. Губка Боб в 3D / The SpongeBob Movie: Sponge Out of Water (Пол Тиббит) [мультфильм, комедия, приключения, семейный, 2015] BDRip 1080p, Dub+Sub [Лицензия]

Dracon

203 | 61

9.14 ГБ

В этой теме нет новых непрочитанных сообщений. Лего. Фильм / The Lego Movie [мультфильм, фэнтези, комедия, приключения, семейный, 2014] BDRip 1080p, Dub+Sub [Лицензия]

Dracon

262 | 14

7.66 ГБ

В этой теме нет новых непрочитанных сообщений. Губка Боб в 3D / The SpongeBob Movie: Sponge Out of Water (Пол Тиббит) [мультфильм, комедия, приключения, семейный, 2015] BDRip 720p, Dub+Sub [Лицензия]

Dracon

241 | 60

4.45 ГБ


Начать новую тему Ответить на тему  [ 1 сообщение ] 




Для Мосгорсуда, Роскомнадзора и рекламодателей:: mosgorsud-torrent[собачка]yandex.ru