COVID-19 - Последняя информация о коронавирусе на сайте Минздрава




Торрент файл
скачать торрент магнет ссылка Добавлен: 08 апр 2011, 22:06
Размер: 1.37 ГБ
Сидеров: 42
Личеров: 13
Автор

СообщениеДобавлено: 08 апр 2011, 22:06 

Не в сети
Супермодератор
Аватара пользователя
Дата регистрации:
22 май 2010, 11:03
Возраст: 36
Спасибо: 7931 / 13
Сообщения: 49828
Огнедышащий / Firebreather



Перевод: Любительский (двухголосый)
Субтитры: отсутствуют
Формат: DVDRip, AVI, XviD, AC3
Страна: США
Режиссер: Peter Chung / Питер Чунг
Жанр: Мультфильм
Продолжительность: 1:09:29
Год выпуска: 2010
Роли озвучивали: Дана Дилэйни, Джесси Хэд, Данте Баско, Эми Дэвидсон, Грэй ДеЛисл, Рид Даймонд, Billy Evans, Джошуа Китон, Джеймисон Мосс, Кевин Майкл Ричардсон
Описание: Дункан хочет, чтобы он был нормальным ребенком в обычной школе. Пока он не понимает, что он что-то очень далекое от нормального.

Рейтинг на IMDB:6.6/10
Рейтинг на КиноПоиск.RU: 8.607

Видео:704x384 (1.83:1), 23.976 fps, XviD MPEG-4, ~1907 kbps avg, 0.29 bit/pixel
Аудио#1: Русский: 48 kHz, AC3 Dolby Digital, 3/2 (L,C,R,l,r) + LFE ch, ~448 kbps avg [Любительский (двухголосый)]
Аудио#2: Английский: 48 kHz, AC3 Dolby Digital, 3/2 (L,C,R,l,r) + LFE ch, ~448 kbps avg



General
Complete name: D:\Darksuslik\[Films]\Огнедышащий.avi
Format: AVI
Format/Info: Audio Video Interleave
File size: 1.37 GiB
Duration: 1h 9mn
Overall bit rate: 2 818 Kbps
Writing application: VirtualDubMod 1.5.10.2 (build 2540/release)
Writing library: VirtualDubMod build 2540/release

Video
ID: 0
Format: MPEG-4 Visual
Format profile: Advanced Simple@L5
Format settings, BVOP: 2
Format settings, QPel: No
Format settings, GMC: No warppoints
Format settings, Matrix: Default (H.263)
Muxing mode: Packed bitstream
Codec ID: XVID
Codec ID/Hint: XviD
Duration: 1h 9mn
Bit rate: 1 908 Kbps
Width: 704 pixels
Height: 384 pixels
Display aspect ratio: 16:9
Frame rate: 23.976 fps
Color space: YUV
Chroma subsampling: 4:2:0
Bit depth: 8 bits
Scan type: Progressive
Compression mode: Lossy
Bits/(Pixel*Frame): 0.294
Stream size: 948 MiB (68%)
Writing library: XviD 1.2.1 (UTC 2008-12-04)

Audio #1
ID: 1
Format: AC-3
Format/Info: Audio Coding 3
Mode extension: CM (complete main)
Codec ID: 2000
Duration: 1h 9mn
Bit rate mode: Constant
Bit rate: 448 Kbps
Channel(s): 6 channels
Channel positions: Front: L C R, Side: L R, LFE
Sampling rate: 48.0 KHz
Bit depth: 16 bits
Compression mode: Lossy
Stream size: 223 MiB (16%)
Alignment: Split accross interleaves
Interleave, duration: 42 ms (1.00 video frame)
Interleave, preload duration: 500 ms

Audio #2
ID: 2
Format: AC-3
Format/Info: Audio Coding 3
Mode extension: CM (complete main)
Codec ID: 2000
Duration: 1h 9mn
Bit rate mode: Constant
Bit rate: 448 Kbps
Channel(s): 6 channels
Channel positions: Front: L C R, Side: L R, LFE
Sampling rate: 48.0 KHz
Bit depth: 16 bits
Compression mode: Lossy
Stream size: 223 MiB (16%)
Alignment: Split accross interleaves
Interleave, duration: 42 ms (1.00 video frame)
Interleave, preload duration: 500 ms

















Скачать книги и аудио книги через торрент


Вернуться к началу
 Профиль Отправить личное сообщение  
 
   Похожие торренты   Автор   Торрент   Размер 
В этой теме нет новых непрочитанных сообщений. Венеция / Wenecja [драма, 2010] DVDRip, Dvo

K15

1 | 0

2.25 ГБ

В этой теме нет новых непрочитанных сообщений. Парикмахерша / Die Friseuse [драма, комедия, 2010] DVDRip, Dvo

salma3

0 | 0

913.46 МБ

В этой теме нет новых непрочитанных сообщений. Интуиция / Serendipity (Питер Челсом) [2001 г., Мелодрама, комедия, BDRip] Dub

zorgi

3 | 0

1.46 ГБ

В этой теме нет новых непрочитанных сообщений. Кролик Питер / Peter Rabbit [фэнтези, комедия, приключения, 2018] DVD9, Dub [Лицензия]

salma3

1 | 0

5.79 ГБ

В этой теме нет новых непрочитанных сообщений. Мой шпион / My Spy (Питер Сигал) [2020 г., боевик, комедия, семейный, BDRip 1080p] | L2

zorgi

22 | 0

8.74 ГБ

В этой теме нет новых непрочитанных сообщений. Питер Пэн и Алиса в стране чудес / Come Away [Фэнтези, драма, приключения, 2020] BDRip, Dub [iTunes]

salma3

4 | 1

1.41 ГБ

В этой теме нет новых непрочитанных сообщений. История игрушек: Большой побег / Toy Story 3 [Мультфильм, фэнтези, комедия, приключения, семейный, полнометражный, 2010] UHD BDRemux 2160p, Dub | 4K | [Лицензия]

NTL

0 | 0

35.43 ГБ


Начать новую тему Ответить на тему  [ 1 сообщение ] 




Для Мосгорсуда, Роскомнадзора и рекламодателей:: rstracker[собака]yandex.ru
cron