Торрент файл
скачать торрент магнет ссылка Добавлен: 18 май 2015, 11:51
Размер: 1.45 ГБ
Сидеров: 6
Личеров: 1
Статус: (salma3)
Автор

СообщениеДобавлено: 18 май 2015, 11:51 

Не в сети
Супермодератор
Аватара пользователя
Дата регистрации:
15 фев 2012, 16:44
Возраст: 27
Спасибо: 5130 / 2089
Сообщения: 17350
Волшебный Пудинг / The Magic Pudding

Год выпуска: 2000
Жанр: мультфильм, семейный, приключения
Режиссер: Карл Цвики

В ролях: Сэм Нилл, Хьюго Уивинг, Джон Клиз, Джеффри Раш, Дэйв Гибсон, Джон Лоус, Грег Кэрролл, Питер Гуинн, Майкл Вэйтч, Робин Мур

Описание:
Узнав однажды, что его родители живы и живут где-то далеко-далеко, медвежонок отправляется на их поиски. Во время путешествия его ждут забавные и порой опасные приключения, знакомства с добрыми друзьями - пингвином Сэмом, морячком Биллом, волшебным пудингом Альбертом, а также a со злодеями Опоссумом и Вамбатом и многими-многими другими. Несмотря на все трудности, маленький коала никогда не забывает о цели своего путешествия, в конце которого его ждет счастливая встреча с родителями...



Страна: Австралия
Продолжительность: 01:15:02
Перевод: Профессиональный (многоголосый, закадровый)

Файл
Качество: DVDRip
Формат файла: AVI
Видео кодек: XviD
Аудио кодек: AC3
Видео: 720x400 (16:9), 25 fps, XviD MPEG-4 ~ 2364 kbps avg, 0.328 bit/pixel
Аудио1: Русский 48 kHz, AC3, 2 ch, Front: L R 192.00 kbps [многоголосый]
Аудио2: Английский 48 kHz, AC3, 2 ch, Front: L R 192.00 kbps [Оригинал]


Общее
Полное имя : Volshebnyj.puding.2000.DVDRip.avi
Формат : AVI
Формат/Информация : Audio Video Interleave
Размер файла : 1,45 Гбайт
Продолжительность : 1 ч. 15 м.
Общий поток : 2762 Кбит/сек
Программа кодирования : VirtualDubModRus 1.5.10.2 (build 2542/release)
Библиотека кодирования : VirtualDubMod build 2542/release

Видео
Идентификатор : 0
Формат : MPEG-4 Visual
Профиль формата : Advanced Simple@L5
Параметр BVOP формата : 1
Параметр QPel формата : Нет
Параметр GMC формата : Без точки перехода
Параметр матрицы формата : Выборочная
Идентификатор кодека : XVID
Идентификатор кодека/Подсказка : XviD
Продолжительность : 1 ч. 15 м.
Битрейт : 2364 Кбит/сек
Ширина : 720 пикселей
Высота : 400 пикселей
Соотношение сторон : 16:9
Частота кадров : 25,000 кадров/сек
Цветовое пространство : YUV
Субдискретизация насыщенности : 4:2:0
Битовая глубина : 8 бит
Тип развёртки : Чересстрочная
Порядок развёртки : Нижнее поле первое
Метод сжатия : С потерями
Бит/(Пиксели*Кадры) : 0.328
Размер потока : 1,24 Гбайт (86%)
Библиотека кодирования : XviD 1.2.1 (UTC 2008-12-04)

Аудио #1
Идентификатор : 1
Формат : AC-3
Формат/Информация : Audio Coding 3
Расширение режима : CM (complete main)
Идентификатор кодека : 2000
Продолжительность : 1 ч. 15 м.
Вид битрейта : Постоянный
Битрейт : 192 Кбит/сек
Каналы : 2 канала
Расположение каналов : Front: L R
Частота : 48,0 КГц
Битовая глубина : 16 бит
Метод сжатия : С потерями
Размер потока : 103 Мбайт (7%)
Выравнивание : Разделение по промежуткам
Продолжительность промежутка : 40 мс. (1,00 видеокадр)
Время предзагрузки промежутка : 500 мс.

Аудио #2
Идентификатор : 2
Формат : AC-3
Формат/Информация : Audio Coding 3
Расширение режима : CM (complete main)
Идентификатор кодека : 2000
Продолжительность : 1 ч. 15 м.
Вид битрейта : Постоянный
Битрейт : 192 Кбит/сек
Каналы : 2 канала
Расположение каналов : Front: L R
Частота : 48,0 КГц
Битовая глубина : 16 бит
Метод сжатия : С потерями
Размер потока : 103 Мбайт (7%)
Выравнивание : Разделение по промежуткам
Продолжительность промежутка : 40 мс. (1,00 видеокадр)
Время предзагрузки промежутка : 500 мс.




_________________



реклама партнёра


Вернуться к началу
 Профиль Отправить личное сообщение  
 
   Похожие торренты   Автор   Торрент   Размер 
В этой теме нет новых непрочитанных сообщений. Феникс и волшебный ковер / The Phoenix and the Magic Carpet [фэнтези, приключения, семейный, 1995] DVDRip, Mvo

salma3

53 | 9

1.46 ГБ

В этой теме нет новых непрочитанных сообщений. Волшебный футбол / Metegol [мультфильм, приключения, семейный, спорт, 2013] HDRip [AlexFilm]

Dracon

11 | 3

1.37 ГБ

В этой теме нет новых непрочитанных сообщений. Волшебный футбол / Metegol [мультфильм, приключения, семейный, спорт, 2013] BDRip 720p, Mvo+Sub [AlexFilm]

Dracon

15 | 2

6.67 ГБ

В этой теме нет новых непрочитанных сообщений. Волшебный футбол / Metegol [мультфильм, приключения, семейный, спорт, 2013] BDRip 1080p, Mvo+Sub [AlexFilm]

Dracon

29 | 5

10.82 ГБ

В этой теме нет новых непрочитанных сообщений. Blackwitch Pudding - Taste The Pudding [2013, Stoner, Doom Metal, MP3]

PriZraK

0 | 1

209.92 МБ

В этой теме нет новых непрочитанных сообщений. Большая игра / Волшебный футбол / Настольный футбол / Metegol [мультфильм, приключения, семейный, спорт, 2013] BDRip 1080p, Mvo+Sub [AlexFilm | 3D-Video]

Dracon

113 | 25

6.86 ГБ

В этой теме нет новых непрочитанных сообщений. Анна и король / Anna and the King [Мультфильм, приключения, семейный, история, 2000] DVDRip, dub

salma3

21 | 4

655.29 МБ


Начать новую тему Ответить на тему  [ 1 сообщение ] 




Для Мосгорсуда, Роскомнадзора и рекламодателей:: mosgorsud-torrent[собачка]yandex.ru