Торрент файл
скачать торрент магнет ссылка Добавлен: 30 апр 2015, 11:14
Размер: 3.21 ГБ
Сидеров: 27
Личеров: 5
Автор

СообщениеДобавлено: 30 апр 2015, 11:14 

Не в сети
Зам. Админа
Аватара пользователя
Дата регистрации:
02 дек 2010, 12:39
Спасибо: 12623 / 214
Сообщения: 28012
 
Год выхода: 2015
Жанр: Приключения, Семейный, Комедия, Мультфильм
Режиссер: Марк Бертон
В ролях: Джастин Флетчер, Джон Шпаркс, Омид Джалили, Ричард Веббер, Кейт Харбор, Тим Хэндс, Энди Найман, Саймон Гринхолл, Эмма Тейт, Джек Полсон

О фильме:
Мирная жизнь маленькой овцефермы оказывается под угрозой, когда в результате очередной проказы неутомимого Барашка Шона хозяин фермы попадает в большой город. Вдоволь навеселившись полной свободой и безнаказанностью, Шон и остальное стадо барашков начинают волноваться за Фермера и решают отправиться на его спасение. Замаскировавшись под людей, они едут в большой город, где их ждет самое весёлое и эпическое приключение всей жизни.




Качество: WEB-DLRip[1080p]
Видео: MPEG-4 AVC, 5131 Кбит/с, 25 fps, 1918x1036
Аудио: AC3, 6 ch, 48000 Hz,384 Кбит/с
Продолжительность: 01:21:33
Перевод:Дублированный [Цифровая лицензия iTunes]


Видео
Идентификатор                            : 1
Формат                                   : AVC
Формат/Информация                        : Advanced Video Codec
Профиль формата                          : High@L4
Параметр CABAC формата                   : Да
Параметр ReFrames формата                : 4 кадра
Идентификатор кодека                     : V_MPEG4/ISO/AVC
Продолжительность                        : 1 ч. 21 м.
Битрейт                                  : 5131 Кбит/сек
Ширина                                   : 1918 пикселей
Высота                                   : 1036 пикселей
Соотношение сторон                       : 1,85:1
Режим частоты кадров                     : Постоянный
Частота кадров                           : 25,000 кадров/сек
Цветовое пространство                    : YUV
Субдискретизация насыщенности            : 4:2:0
Битовая глубина                          : 8 бит
Тип развёртки                            : Прогрессивная
Бит/(Пиксели*Кадры)                      : 0.103
Размер потока                            : 2,92 Гбайт (91%)
Язык                                     : <a href="http://cityadspix.com/tsclick-AQCGJFSK-SLZKVXTQ?&sa=&sa1=&sa2=&sa3=&sa4=&sa5=&bt=20&pt=9<=2&tl=1&im=MTc1NS0wLTE0MzAzNjQ4MzAtMTk1MDkwMTQ%3D&fid=NDQ5NTgyNDk1&kw=English" target="_blank" alt="mba.ru" title="mba.ru" style="">English</a>
Default                                  : Да
Forced                                   : Нет
Цветовой диапазон                        : Limited
Основные цвета                           : BT.709
Характеристики трансфера                 : BT.709
Коэффициенты матрицы                     : BT.709

Аудио
Идентификатор                            : 2
Формат                                   : AC-3
Формат/Информация                        : Audio Coding 3
Расширение режима                        : CM (complete main)
Параметр Endianness формата              : Big
Идентификатор кодека                     : A_AC3
Продолжительность                        : 1 ч. 21 м.
Вид битрейта                             : Постоянный
Битрейт                                  : 384 Кбит/сек
Каналы                                   : 6 каналов
Расположение каналов                     : Front: L C R, Side: L R, LFE
Частота                                  : 48,0 КГц
Битовая глубина                          : 16 бит
Метод сжатия                             : С потерями
Размер потока                            : 224 Мбайт (7%)
Язык                                     : Russian
Default                                  : Да
Forced                                   : Нет








реклама партнёра


Вернуться к началу
 Профиль  
 
   Похожие торренты   Автор   Торрент   Размер 
В этой теме нет новых непрочитанных сообщений. Барашек Шон / Shaun the Sheep Movie (Марк Бертон) [Приключения, Семейный, Комедия, Мультфильм, 2015] WEB-DLRip 720p, Dub [iTunes]

Dracon

1 | 1

2.54 ГБ

В этой теме нет новых непрочитанных сообщений. Барашек Шон / Shaun the Sheep Movie (Марк Бертон) [Приключения, Семейный, Комедия, Мультфильм, 2015] BDRip 1080p, [Лицензия / русский видеоряд]

Dracon

1079 | 68

5.43 ГБ

В этой теме нет новых непрочитанных сообщений. Барашек Шон / Shaun the Sheep Movie (Марк Бертон) [Приключения, Семейный, Комедия, Мультфильм, 2015] HDRip, [Лицензия / русский видеоряд]

Dracon

201 | 2

1.37 ГБ

В этой теме нет новых непрочитанных сообщений. Барашек Шон / Shaun the Sheep Movie (Марк Бертон) [Приключения, Семейный, Комедия, Мультфильм, 2015] BDRip 720p [Лицензия / русский видеоряд]

Dracon

39 | 1

3.86 ГБ

В этой теме нет новых непрочитанных сообщений. Губка Боб в 3D / The SpongeBob Movie: Sponge Out of Water (Пол Тиббит) [мультфильм, комедия, приключения, семейный, 2015] WEB-DLRip, Dub [iTunes]

Dracon

1 | 0

1.46 ГБ

В этой теме нет новых непрочитанных сообщений. Губка Боб в 3D / The SpongeBob Movie: Sponge Out of Water (Пол Тиббит) [мультфильм, комедия, приключения, семейный, 2015] WEB-DL 1080p, Dub [iTunes]

Dracon

16 | 1

3.61 ГБ

В этой теме нет новых непрочитанных сообщений. Губка Боб в 3D / The SpongeBob Movie: Sponge Out of Water (Пол Тиббит) [мультфильм, комедия, приключения, семейный, 2015] BDRip 1080p, Dub [iTunes]

Dracon

172 | 8

4.62 ГБ


Начать новую тему Ответить на тему  [ 1 сообщение ] 




Для Мосгорсуда, Роскомнадзора и рекламодателей:: mosgorsud-torrent[собачка]yandex.ru