Торрент файл
скачать торрент магнет ссылка Добавлен: 27 апр 2015, 22:08
Размер: 2.8 ГБ
Сидеров: 7
Личеров: 2
Автор

СообщениеДобавлено: 27 апр 2015, 22:08 

Не в сети
Зам. Админа
Аватара пользователя
Дата регистрации:
02 дек 2010, 12:39
Спасибо: 12652 / 214
Сообщения: 28010
Год выхода: 2014
Жанр: мультфильм, фэнтези, приключения, семейный
Режиссер: Юэфэн Сонг
В ролях: Цзяо Сюй, Гуаньлин Джи, Йинг Хуан, Давей Шен, Сянлонг Менг, Йе Сунь, Тиан Джин, Хон Шан, Цзытун Ся, Блайт Оффарт

О фильме:
Кто бы мог подумать, что всегда неуклюжий, но несомненно талантливый парень станет великим героем, который спасет свою красивейшую планету от пробудившегося зла? Много лет, пока легендарный Черный дракон спал, земля Алтера хранила хрупкий мир между расами людей, эльфов и неведомых нашему миру животных. Когда же он пробудился, охваченные ужасом жители были вынуждены бежать сквозь остров в попытке найти спасение...

Качество: WEB-DL[720p]
Видео: MPEG4, Video, (H264), 1280x690, 24fps, 3973 kbps
Аудио: Dolby, AC3, 48000Hz, 6ch, 384kbps
Продолжительность: 01:30:02
Перевод: Дублированный

gHe3d0.dPaK0Ha.2014.D.WEB-DL.720p.mkv
Format                                   : Matroska
Format version                           : Version 4 / Version 2
File size                                : 2.80 GiB
Duration                                 : 1h 30mn
Overall bit rate                         : 4 445 Kbps
Encoded date                             : UTC 2015-04-27 16:21:42
Writing application                      : mkvmerge v6.9.1 ('Blue Panther') 64bit built on Apr 18 2014 18:23:38
Writing library                          : libebml v1.3.0 + libmatroska v1.4.1

Video
ID                                       : 1
Format                                   : AVC
Format/Info                              : Advanced Video Codec
Format profile                           : High@L3.1
Format settings, CABAC                   : No
Format settings, ReFrames                : 2 frames
Codec ID                                 : V_MPEG4/ISO/AVC
Duration                                 : 1h 30mn
Bit rate                                 : 3 973 Kbps
Width                                    : 1 280 pixels
Height                                   : 690 pixels
Display aspect ratio                     : 1.85:1
Frame rate mode                          : Constant
Frame rate                               : 24.000 fps
Color space                              : YUV
Chroma subsampling                       : 4:2:0
Bit depth                                : 8 bits
Scan type                                : Progressive
Bits/(Pixel*Frame)                       : 0.187
Stream size                              : 2.50 GiB (89%)
Language                                 : English
Default                                  : Yes
Forced                                   : No
Color primaries                          : BT.709
Transfer characteristics                 : BT.709
Matrix coefficients                      : BT.709

Audio
ID                                       : 2
Format                                   : AC-3
Format/Info                              : Audio Coding 3
Mode extension                           : CM (complete main)
Format settings, Endianness              : Big
Codec ID                                 : A_AC3
Duration                                 : 1h 30mn
Bit rate mode                            : Constant
Bit rate                                 : 384 Kbps
Channel count                            : 6 channels
Channel positions                        : Front: L C R, Side: L R, LFE
Sampling rate                            : 48.0 KHz
Bit depth                                : 16 bits
Compression mode                         : Lossy
Stream size                              : 247 MiB (9%)
Language                                 : Russian
Default                                  : Yes
Forced                                   : No

Menu
00:00:00.000                             : en:Глава 1
00:05:04.000                             : en:Глава 2
00:10:18.000                             : en:Глава 3
00:15:27.000                             : en:Глава 4
00:20:11.000                             : en:Глава 5
00:25:08.000                             : en:Глава 6
00:30:04.000                             : en:Глава 7
00:35:11.000                             : en:Глава 8
00:40:17.000                             : en:Глава 9
00:45:15.000                             : en:Глава 10
00:50:10.000                             : en:Глава 11
00:55:24.000                             : en:Глава 12
01:00:22.000                             : en:Глава 13
01:05:07.000                             : en:Глава 14
01:09:48.000                             : en:Глава 15
01:14:59.000                             : en:Глава 16
01:20:07.000                             : en:Глава 17







Вернуться к началу
 Профиль  
 
   Похожие торренты   Автор   Торрент   Размер 
В этой теме нет новых непрочитанных сообщений. Гнездо дракона / Dragon Nest: Warriors' Dawn (Юэфэн Сун) [фэнтези, приключения, семейный, 2014] BDRip 1080p, Dub [3D-Video | BD Rus]

Dracon

355 | 21

7.56 ГБ

В этой теме нет новых непрочитанных сообщений. Воины дракона / Dragon Warriors (Маклейн Нельсон, Стивен Шимек) [2015, фэнтези, боевик, комедия, SATRip] mvo

Nickolas3435

225 | 20

1.45 ГБ

В этой теме нет новых непрочитанных сообщений. Бэтмен против Супермена: На заре справедливости / Batman v Superman: Dawn of Justice [Фантастика, фэнтези, боевик, приключения, 2016] WEB-DLRip, Dub [Чистый Звук]

salma3

80 | 2

1.37 ГБ

В этой теме нет новых непрочитанных сообщений. Бэтмен против Супермена: На заре справедливости / Batman v Superman: Dawn of Justice [Фантастика, фэнтези, боевик, приключения, 2016] WEB-DLRip, Dub [Чистый Звук]

salma3

2136 | 76

2.05 ГБ

В этой теме нет новых непрочитанных сообщений. Большой и добрый великан / The BFG [фэнтези, приключения, семейный, 2016] HDRip, Dub [чистый звук]

salma3

57 | 3

2.05 ГБ

В этой теме нет новых непрочитанных сообщений. Большой и добрый великан / The BFG [фэнтези, приключения, семейный, 2016] WEB-DL 1080p, Dub [чистый звук]

salma3

602 | 138

4.37 ГБ

В этой теме нет новых непрочитанных сообщений. Гнездо шершней / Hornets' Nest [боевик, драма, военный, 1970] BDRip 720p, Dvo [НТВ+]

salma3

13 | 8

7.05 ГБ


Начать новую тему Ответить на тему  [ 1 сообщение ] 




Для Мосгорсуда, Роскомнадзора и рекламодателей:: mosgorsud-torrent[собачка]yandex.ru
cron