COVID-19 - Последняя информация о коронавирусе на сайте Минздрава




Торрент файл
скачать торрент магнет ссылка Добавлен: 08 апр 2011, 21:46
Размер: 1.65 ГБ
Сидеров: 3
Личеров: 5
Автор

СообщениеДобавлено: 08 апр 2011, 21:46 

Не в сети
Супермодератор
Аватара пользователя
Дата регистрации:
22 май 2010, 11:03
Возраст: 35
Спасибо: 7918 / 13
Сообщения: 49828
Легенды ночных стражей / Legend of the Guardians: The Owls of Ga'Hoole



Перевод: Профессиональный (полное дублирование), cубтитры: отсутствуют

Слоган: «On his way to finding a legend...he will become one.»

Формат: HDRip-AVC, MKV, H.264, AC3
Страна: США, Австралия
Режиссер: Зак Снайдер
Жанр: Фэнтези, приключения, мультфильм
Продолжительность: 01:36:49
Год выпуска: 2010

В ролях: Джим Стерджесс, Джоэл Эдгертон, Хьюго Уивинг, Эдриэнн ДеФариа, Ричард Роксбург, Дэвид Уэнэм, Хелен Миррен, Мириам Марголис, Сэм Нил, Джеффри Раш

Описание: Миром, в котором уже не осталось людей, правят совы… добрые… злые… как и всегда! В волшебном лесу - королевстве сов Тито - на Великом Дереве Га`Хуул, где разумные совы живут в гармонии, наступают мрачные времена. Королевство подвергается страшной опасности со стороны соседних жестоких правителей, и эта опасность грозит уничтожить привычное мироздание.


Рейтинг на MPAA: PG

Видео: 1024x432 (2.35:1), 23.976 fps, MPEG4 AVC (x264) , ~2060 kbps avg, 0.190 bit/pixel
Аудио: 48 kHz, AC-3, 6 channels, ~384.00 kbps avg

Дополнительная информация:
бюджет = $80 000 000
сборы в США = $55 654 636
сборы в мире + $83 985 682 = $139 640 318
сборы в России = $8 518 162
DVD в США = $6 421 033




[Лицензия!]

Video #1
ID : 1
Format : AVC
Format/Info : Advanced Video Codec
Format profile :
Format settings, CABAC : Yes
Format settings, ReFrames : 6 frames
Muxing mode : Container profile=Unknown@3.1
Codec ID : V_MPEG4/ISO/AVC
Duration : 1h 36mn
Bit rate : 2 013 Kbps
Nominal bit rate : 2 060 Kbps
Width : 1 024 pixels
Height : 432 pixels
Display aspect ratio : 2.35:1
Original display aspect ratio : 2.35:1
Frame rate : 23.976 fps
Resolution : 24 bits
Colorimetry : 4:2:0
Scan type : Progressive
Bits/(Pixel*Frame) : 0.190
Stream size : 1.36 GiB (82%)
Writing library : x264 core 75 r1251kMod e553a4c
Encoding settings : cabac=1 / ref=6 / deblock=1:1:1 / analyse=0x1:0x111 / me=hex / subme=9 / psy=1 / psy_rd=1.0:0.8 / mixed_ref=1 / me_range=16 / chroma_me=1 / trellis=1 / 8x8dct=0 / cqm=0 / deadzone=21,11 / chroma_qp_offset=-4 / threads=1 / nr=0 / decimate=1 / mbaff=0 / bframes=6 / b_pyramid=0 / b_adapt=0 / b_bias=0 / direct=3 / wpredb=1 / keyint=250 / keyint_min=25 / scenecut=40 / rc_lookahead=60 / rc=2pass / mbtree=1 / bitrate=2060 / ratetol=1.0 / qcomp=0.60 / qpmin=10 / qpmax=51 / qpstep=4 / cplxblur=20.0 / qblur=0.5 / ip_ratio=1.40 / aq=1:1.00
Audio #2
ID : 2
Format : AC-3
Format/Info : Audio Coding 3
Codec ID : A_AC3
Duration : 1h 36mn
Bit rate mode : Constant
Bit rate : 384 Kbps
Channel(s) : 6 channels
Channel positions : Front: L C R, Surround: L R, LFE
Sampling rate : 48.0 KHz
Stream size : 266 MiB (16%)







Скачать книги и аудио книги через торрент


Вернуться к началу
 Профиль Отправить личное сообщение  
 
   Похожие торренты   Автор   Торрент   Размер 
В этой теме нет новых непрочитанных сообщений. Дом ночных призраков / House On Haunted Hill [Ужасы, триллер, детектив, 1999] HDRip-AVC, Dub

salma3

0 | 2

746.12 МБ

В этой теме нет новых непрочитанных сообщений. Пеле: Рождение легенды / Pelé: Birth of a Legend [драма, биография, спорт, 2016] DVD9, Dub [Лицензия]

salma3

0 | 0

6.19 ГБ

В этой теме нет новых непрочитанных сообщений. Легенда об Искателе / Legend of the Seeker [S01-02] [Фэнтези, боевик, драма, 2008-2010] HDRip, Mvo

salma3

0 | 1

34.63 ГБ

В этой теме нет новых непрочитанных сообщений. Возвращение в дом ночных призраков / Return to House on Haunted Hill [ужасы, триллер, 2007] HDRip-AVC, Avo

salma3

0 | 0

1.37 ГБ

В этой теме нет новых непрочитанных сообщений. Стражи Галактики. Часть 2 / Guardians of the Galaxy. Vol. 2 [Фантастика, приключения, 2017] BDRip-AVC, Dub

salma3

0 | 0

3.47 ГБ

В этой теме нет новых непрочитанных сообщений. Легенда об одиноком рейнджере / The Legend of the Lone Ranger [приключения, вестерн, 1981] HDRip-AVC, Avo

salma3

0 | 0

1.31 ГБ

В этой теме нет новых непрочитанных сообщений. Городские легенды 3: Кровавая Мэри / Urban Legends: Bloody Mary [Триллер, Ужасы, 2005] HDRip-AVC, Mvo

salma3

0 | 0

740 МБ


Начать новую тему Ответить на тему  [ 1 сообщение ] 




Для Мосгорсуда, Роскомнадзора и рекламодателей:: rstracker[собака]yandex.ru
cron