Торрент файл
скачать торрент магнет ссылка Добавлен: 21 мар 2015, 10:36
Размер: 20.48 ГБ
Сидеров: 21
Личеров: 2
Автор

СообщениеДобавлено: 21 мар 2015, 10:36 

Не в сети
Зам. Админа
Аватара пользователя
Дата регистрации:
02 дек 2010, 12:39
Спасибо: 12461 / 214
Сообщения: 27968
Год выпуска: 2014
Жанр: Мультфильм, фэнтези, приключения, семейный
Выпущено: США, DisneyToon Studios, Prana Studios
Режиссер: Стив Лотер
В ролях: Джиннифер Гудвин, Розарио Доусон, Рэйвен, Мэй Уитман, Люси Лью, Томас Леннон, Памела Адлон, Меган Хилти, Мелани Браун

О фильме: Анимационная сказка расскажет удивительную историю о веселой и талантливой фее Фауне, которая убеждена в том, что о книге нельзя судить по ее обложке, впрочем, как и о животном по его клыкам, поэтому она дружит с таинственным существом громадных размеров из Нетландии по прозвищу Чудовище. В это время группа волшебных фей разведки не настолько уверены в этом страшном звере и намереваются захватить его прежде, чем он уничтожит их дома. Они хотят отправиться на поиски Чудовища. Фауна, чтобы спасти своего нового друга, остается лишь доказать всем, что он — существо доброе и не собирается вредить другим.

Качество: Blu-Ray Remux (1080p)
Видео: MPEG-4 AVC, 32992 Кбит/с, 1920х1080, 23.976 кадр/с
Аудио: Русский (AC3, 6 ch, 640 Кбит/с), английский (DTS-HD MA, 8 ch, 4675 Кбит/с), (AC3, 2 ch, 320 Кбит/с)
Размер: 20.48 ГБ
Продолжительность: 01:16:14
Перевод: Дублированный [Лицензия]
Субтитры: Русские, английские

Общее
Уникальный идентификатор : 223469690884371114083520859993524288344 (0xA81EB26A3F81D7CAB3D77E17E7663B58)
Полное имя : C:FeiTinkerbell.And.The.Legend.Of.The.Neverbeast.2014.x264.BDRemux.(1080p).mkv
Формат : Matroska
Версия формата : Version 2
Размер файла : 20,5 Гбайт
Продолжительность : 1 ч. 16 м.
Режим общего битрейта : Переменный
Общий поток : 38,5 Мбит/сек
Название фильма : Феи: Легенда о чудовище.2014.Rip by: ollan
Дата кодирования : UTC 2015-03-21 00:03:34
Программа кодирования : mkvmerge v6.2.0 ('Promised Land') built on Apr 28 2013 12:22:01
Библиотека кодирования : libebml v1.3.0 + libmatroska v1.4.0
DURATION : 01:10:07.786000000
NUMBER_OF_FRAMES : 1086
NUMBER_OF_BYTES : 27803
_STATISTICS_WRITING_APP : mkvmerge v7.3.0 ('Nouages') 64bit built on Oct 22 2014 18:53:34
_STATISTICS_WRITING_DATE_UTC : 2015-03-09 15:32:24
_STATISTICS_TAGS : BPS DURATION NUMBER_OF_FRAMES NUMBER_OF_BYTES
Видео
Идентификатор : 1
Формат : AVC
Формат/Информация : Advanced Video Codec
Профиль формата : High@L4.1
Параметр CABAC формата : Да
Параметр ReFrames формата : 4 кадра
Параметр GOP формата : M=1, N=12
Идентификатор кодека : V_MPEG4/ISO/AVC
Продолжительность : 1 ч. 16 м.
Вид битрейта : Переменный
Максимальный битрейт : 34,0 Мбит/сек
Ширина : 1920 пикселей
Высота : 1080 пикселей
Соотношение сторон : 16:9
Режим частоты кадров : Постоянный
Частота кадров : 23,976 кадра/сек
Цветовое пространство : YUV
Субдискретизация насыщенности : 4:2:0
Битовая глубина : 8 бит
Тип развёртки : Прогрессивная
Default : Да
Forced : Нет
Аудио #1
Идентификатор : 2
Формат : AC-3
Формат/Информация : Audio Coding 3
Расширение режима : CM (complete main)
Параметр Endianness формата : Big
Идентификатор кодека : A_AC3
Продолжительность : 1 ч. 16 м.
Вид битрейта : Постоянный
Битрейт : 640 Кбит/сек
Каналы : 6 каналов
Расположение каналов : Front: L C R, Side: L R, LFE
Частота : 48,0 КГц
Битовая глубина : 16 бит
Метод сжатия : С потерями
Размер потока : 349 Мбайт (2%)
Язык : Russian
Default : Да
Forced : Нет
Аудио #2
Идентификатор : 3
Формат : DTS
Формат/Информация : Digital Theater Systems
Профиль формата : MA / Core
Режим : 16
Параметр Endianness формата : Big
Идентификатор кодека : A_DTS
Продолжительность : 1 ч. 16 м.
Вид битрейта : Переменный
Битрейт : Неизвестно / 1509 Кбит/сек
Каналы : 8 каналов / 6 каналов
Расположение каналов : Front: L C R, Side: L R, Back: L R, LFE / Front: L C R, Side: L R, LFE
Частота : 48,0 КГц
Битовая глубина : 24 бит
Метод сжатия : Без потерь / Lossy
Язык : English
Default : Нет
Forced : Нет
Аудио #3
Идентификатор : 4
Формат : AC-3
Формат/Информация : Audio Coding 3
Профиль формата : Dolby Digital
Расширение режима : CM (complete main)
Параметр Endianness формата : Big
Идентификатор кодека : A_AC3
Продолжительность : 1 ч. 16 м.
Вид битрейта : Постоянный
Битрейт : 320 Кбит/сек
Каналы : 2 канала
Расположение каналов : Front: L R
Частота : 48,0 КГц
Битовая глубина : 16 бит
Метод сжатия : С потерями
Размер потока : 175 Мбайт (1%)
Язык : English
Default : Нет
Forced : Нет
Текст #1
Идентификатор : 5
Формат : UTF-8
Идентификатор кодека : S_TEXT/UTF8
Идентификатор кодека/Информация : UTF-8 Plain Text
Язык : Russian
Default : Нет
Forced : Нет
Текст #2
Идентификатор : 6
Формат : UTF-8
Идентификатор кодека : S_TEXT/UTF8
Идентификатор кодека/Информация : UTF-8 Plain Text
Заголовок : English
Язык : English
Default : Нет
Forced : Нет
Текст #3
Идентификатор : 7
Формат : UTF-8
Идентификатор кодека : S_TEXT/UTF8
Идентификатор кодека/Информация : UTF-8 Plain Text
Заголовок : English-SDH
Язык : English
Default : Нет
Forced : Нет
Меню
00:00:00.000 : en:1. Awakening The Beast
00:03:08.188 : en:2. Baby Hawk
00:10:55.071 : en:3. A Great Discovery
00:16:45.087 : en:4. An Understanding
00:20:26.684 : en:5. Making Friends
00:24:20.501 : en:6. Tower Building
00:30:58.732 : en:7. Introducing Gruff
00:34:42.038 : en:8. Fawn's Expertise
00:38:09.245 : en:9. The Beast's Safety
00:41:13.012 : en:10. The Search Begins
00:44:39.468 : en:11. Transformation
00:49:54.992 : en:12. Learning The Truth
00:53:05.766 : en:13. Fighting The Storm
00:57:07.883 : en:14. Saving Pixie Hollow
01:02:54.688 : en:15. Going Home
01:07:54.612 : en:16. End Credits








реклама партнёра


Вернуться к началу
 Профиль  
 
   Похожие торренты   Автор   Торрент   Размер 
В этой теме нет новых непрочитанных сообщений. Феи: Легенда о чудовище / Legend of the NeverBeast (Стив Лотер) [мультфильм, фэнтези, приключения, семейный, 2014] Blu-Ray 1080p, Dub+Sub [Лицензия]

Dracon

7 | 4

30.33 ГБ

В этой теме нет новых непрочитанных сообщений. Феи: Легенда о чудовище / Legend of the NeverBeast (Стив Лотер) [мультфильм, фэнтези, приключения, семейный, 2014] BDRip 1080p, Dub+Sub [Лицензия]

Dracon

329 | 12

7.15 ГБ

В этой теме нет новых непрочитанных сообщений. Феи: Легенда о чудовище / Legend of the NeverBeast (Стив Лотер) [мультфильм, фэнтези, приключения, семейный, 2014] BDRip-AVC, Dub+Sub [Лицензия]

Dracon

232 | 4

1.77 ГБ

В этой теме нет новых непрочитанных сообщений. Феи: Легенда о чудовище / Legend of the NeverBeast (Стив Лотер) [мультфильм, фэнтези, приключения, семейный, 2014] BDRip 720p, Dub+Sub [Лицензия]

Dracon

112 | 4

4.32 ГБ

В этой теме нет новых непрочитанных сообщений. Феи: Легенда о чудовище / Legend of the NeverBeast (Стив Лотер) [мультфильм, фэнтези, приключения, семейный, 2014] BDRip 1080p, Dub [iTunes Russia]

Dracon

43 | 4

9.55 ГБ

В этой теме нет новых непрочитанных сообщений. Феи: Легенда о чудовище / Legend of the NeverBeast (Стив Лотер) [мультфильм, фэнтези, приключения, семейный, 2014] BDRip 1080p, dub [чистый звук]

Dracon

92 | 6

4.58 ГБ

В этой теме нет новых непрочитанных сообщений. Феи: Легенда о чудовище / Tinkerbell And The Legend Of The Neverbeast (Стив Лотер) [мультфильм, фэнтези, приключения, семейный, 2014] BDRemux 1080p, dub [чистый звук]

Dracon

3 | 3

20.87 ГБ


Начать новую тему Ответить на тему  [ 1 сообщение ] 




Для Мосгорсуда, Роскомнадзора и рекламодателей:: mosgorsud-torrent[собачка]yandex.ru