Торрент файл
скачать торрент магнет ссылка Добавлен: 21 мар 2015, 09:43
Размер: 4.37 ГБ
Сидеров: 19
Личеров: 3
Автор

СообщениеДобавлено: 21 мар 2015, 09:43 

Не в сети
Супермодератор
Аватара пользователя
Дата регистрации:
06 июн 2014, 07:51
Спасибо: 576 / 0
Сообщения: 2002
Внимание!!! Возрастное ограничение мультфильма - 16+


Информация
Русское название: Чико и Рита
Оригинальное название: Chico & Rita
Год выхода: 2010
Жанр: мультфильм, мелодрама, музыка
Режиссер: Тоно Эррандо, Хавьер Марискаль, Фернандо Труэба
Выпущено: Испания, Великобритания
Продолжительность: 01:33:21
Перевод: Профессиональный (Многоголосый закадровый)
Роли озвучивали: Лимара Менесес, Эман Хоро Онья, Марио Гуерра, Джон Адамс, Ренни Аросарена, Бланка Роза Бланко, Джеки де ла Нуес, Ригоберто Феррера, Кен Форман, Рэй Гильон

Описание
Эта страстная история любви началась на Кубе конца 40-х годов. Чико — молодой пианист, влюбленный в джаз, Рита мечтает стать великой певицей. С той ночи, когда по воле судьбы они знакомятся в танце в одном из клубов Гаваны, жизнь постоянно соединяет и разлучает их, как персонажей болеро.

Файл
Качество: BDRip 1080p (исходник Blu-ray Disc Remux)
Видео: 1916x1080, 5809 Кбит/сек, 24,000 кадр/сек, AVC, x264, High@L4.1, 16:9, 0.117 Бит/[Пиксели*Кадры]
Аудио 1: AC-3, 448 Кбит/сек, 6 канала(ов), 48,0 КГц - Многоголосый закадровый / Русский
Аудио 2: AC-3, 448 Кбит/сек, 6 канала(ов), 48,0 КГц - Оригинал / Испанский
Субтитры: Русские | Полные, Английские | Полные, Испанские | Полные
Форсированные субтитры: Нет
Чаптеры (Главы): Есть



Format : Matroska
Format version : Version 2
File size : 4.37 GiB
Duration : 1h 33mn
Overall bit rate : 6 705 Kbps
Movie name : Чико и Рита.(2010).BDRip.1080p.[envy]
Encoded date : UTC 2015-03-17 08:48:39
Writing application : mkvmerge v5.8.0 ('No Sleep / Pillow') built on Sep 2 2012 15:37:04
Writing library : libebml v1.2.3 + libmatroska v1.3.0

Video
ID : 1
Format : AVC
Format/Info : Advanced Video Codec
Format profile : High@L4.1
Format settings, CABAC : Yes
Format settings, ReFrames : 4 frames
Codec ID : V_MPEG4/ISO/AVC
Duration : 1h 33mn
Bit rate : 5 809 Kbps
Width : 1 916 pixels
Height : 1 080 pixels
Display aspect ratio : 16:9
Frame rate mode : Constant
Frame rate : 24.000 fps
Color space : YUV
Chroma subsampling : 4:2:0
Bit depth : 8 bits
Scan type : Progressive
Bits/(Pixel*Frame) : 0.117
Stream size : 3.70 GiB (85%)
Title : Чико и Рита.(2010).BDRip.1080p.[envy]
Writing library : x264 core 146 r2538 121396c
Encoding settings : cabac=1 / ref=4 / deblock=1:-1:-1 / analyse=0x3:0x133 / me=umh / subme=11 / psy=1 / psy_rd=1.00:0.00 / mixed_ref=1 / me_range=48 / chroma_me=1 / trellis=2 / 8x8dct=1 / cqm=0 / deadzone=21,11 / fast_pskip=0 / chroma_qp_offset=-2 / threads=12 / lookahead_threads=2 / sliced_threads=0 / nr=0 / decimate=1 / interlaced=0 / bluray_compat=0 / constrained_intra=0 / bframes=9 / b_pyramid=2 / b_adapt=2 / b_bias=0 / direct=3 / weightb=1 / open_gop=0 / weightp=2 / keyint=240 / keyint_min=24 / scenecut=40 / intra_refresh=0 / rc=2pass / mbtree=0 / bitrate=5809 / ratetol=2.0 / qcomp=0.60 / qpmin=0 / qpmax=69 / qpstep=4 / cplxblur=20.0 / qblur=0.5 / ip_ratio=1.40 / pb_ratio=1.30 / aq=2:0.80
Language : English
Default : Yes
Forced : No

Audio #1
ID : 2
Format : AC-3
Format/Info : Audio Coding 3
Mode extension : CM (complete main)
Format settings, Endianness : Big
Codec ID : A_AC3
Duration : 1h 33mn
Bit rate mode : Constant
Bit rate : 448 Kbps
Channel(s) : 6 channels
Channel positions : Front: L C R, Side: L R, LFE
Sampling rate : 48.0 KHz
Bit depth : 16 bits
Compression mode : Lossy
Stream size : 299 MiB (7%)
Title : MVO
Language : Russian
Default : Yes
Forced : No

Audio #2
ID : 3
Format : AC-3
Format/Info : Audio Coding 3
Mode extension : CM (complete main)
Format settings, Endianness : Big
Codec ID : A_AC3
Duration : 1h 33mn
Bit rate mode : Constant
Bit rate : 448 Kbps
Channel(s) : 6 channels
Channel positions : Front: L C R, Side: L R, LFE
Sampling rate : 48.0 KHz
Bit depth : 16 bits
Compression mode : Lossy
Stream size : 299 MiB (7%)
Title : Spa
Language : Spanish
Default : No
Forced : No

Text #1
ID : 4
Format : UTF-8
Codec ID : S_TEXT/UTF8
Codec ID/Info : UTF-8 Plain Text
Title : Rus full
Language : Russian
Default : No
Forced : No

Text #2
ID : 5
Format : UTF-8
Codec ID : S_TEXT/UTF8
Codec ID/Info : UTF-8 Plain Text
Title : Eng full
Language : English
Default : No
Forced : No

Text #3
ID : 6
Format : UTF-8
Codec ID : S_TEXT/UTF8
Codec ID/Info : UTF-8 Plain Text
Title : Spa full
Language : Spanish
Default : No
Forced : No

Menu
00:00:00.000 : en:Chapter 01
00:03:49.916 : en:Chapter 02
00:17:53.541 : en:Chapter 03
00:26:44.041 : en:Chapter 04
00:37:50.625 : en:Chapter 05
00:42:16.625 : en:Chapter 06
00:49:35.916 : en:Chapter 07
00:56:42.208 : en:Chapter 08
01:05:58.833 : en:Chapter 09
01:14:28.333 : en:Chapter 10
01:19:10.875 : en:Chapter 11
01:28:15.541 : en:Chapter 12




реклама партнёра


Вернуться к началу
 Профиль Отправить личное сообщение  
 
   Похожие торренты   Автор   Торрент   Размер 
В этой теме нет новых непрочитанных сообщений. Изящная эпоха / Belle Epoque (Фернандо Труэба / Fernando Trueba) [1992г., Испания, драма, мелодрама, комедия, DVDRip-AVC] MVO

Alfredovich

127 | 10

1.46 ГБ

В этой теме нет новых непрочитанных сообщений. Милашка Рита / Lovely Rita, sainte patronne des cas désespérés [Комедия, криминал, 2003] DVDRip, Mvo

salma3

63 | 2

1.45 ГБ

В этой теме нет новых непрочитанных сообщений. Художник и натурщица / The Artist and the Model / El artista y la modelo (Фернандо Труэба / Fernando Trueba) [2012г., триллер, HDRip] sub

Alfredovich

165 | 4

1.46 ГБ

В этой теме нет новых непрочитанных сообщений. Чико / Chiko [драма, криминал, 2008] BDRip 1080p, Dvo+Avo+Sub

salma3

3 | 3

12.79 ГБ

В этой теме нет новых непрочитанных сообщений. [JacquieetMichelTV.net / Indecentes-Voisines.com] Rita (Rita, 22ans, aide-soignante !) [2015 г., All Sex, Teen, Ebony, Big Ass, Sex, Cum on Ass, French, SiteRip 360p]

friizze

4 | 4

304.55 МБ

В этой теме нет новых непрочитанных сообщений. Гнездо землеройки / Musaranas (Хуан Фернандо Андрес, Эстебан Роэль ) [Триллер, 2014] BDRip 1080p, dvo

Dracon

10 | 2

3.62 ГБ

В этой теме нет новых непрочитанных сообщений. Привычка жениться / The Marrying Man [Мелодрама, комедия, музыка, 1991] BDRip 1080p, Mvo+Avo+Sub

salma3

15 | 6

7.95 ГБ


Начать новую тему Ответить на тему  [ 1 сообщение ] 




Для Мосгорсуда, Роскомнадзора и рекламодателей:: mosgorsud-torrent[собачка]yandex.ru