Торрент файл
скачать торрент магнет ссылка Добавлен: 01 мар 2015, 20:54
Размер: 22.1 ГБ
Сидеров: 24
Личеров: 5
Автор

СообщениеДобавлено: 01 мар 2015, 20:54 

Не в сети
Зам. Админа
Аватара пользователя
Дата регистрации:
02 дек 2010, 12:39
Спасибо: 12458 / 214
Сообщения: 27968
Год выпуска: 2014
Жанр: Мультфильм, комедия, приключения, семейный, полнометражный
Выпущено: США, DreamWorks Animation, Pacific Data Images (PDI)
Режиссер: Эрик Дарнелл, Саймон Дж. Смит
В ролях: Том МакГрат, Крис Миллер, Кристофер Найтс, Бенедикт Камбербэтч, Петер Стормаре, Джон Малкович, Кен Жонг, Аннет Махендру

О фильме: Сверхсекретные операции, железная дисциплина и выдержка, а главное, феноменальная находчивость — вот критерии успешной миссии, даже если она кажется невыполнимой.

Качество: Blu-Ray Remux (1080p)
Видео: MPEG-4 AVC, 28239 Кбит/с, 1920x1080
Аудио: Русский (AC3, 6 ch, 448 Кбит/с), (DTS, 6 ch, 768 Кбит/с) английский (DTS-HD MA, 8 ch, 5262 Кбит/с)
Размер: 22.1 ГБ
Продолжительность: 01:31:49
Перевод: Дублированный [лицензия]
Субтитры: Русские, украинские
Общее
Уникальный идентификатор : 197537732109533103823477003822899826805 (0x949C6222ACFB79FEB6A7DC66CE4E9075)
Полное имя : C:Penguins.of.Madagascar.2014.1080p.BluRay.Remux.mkv
Формат : Matroska
Версия формата : Version 4 / Version 2
Размер файла : 22,1 Гбайт
Продолжительность : 1 ч. 31 м.
Режим общего битрейта : Переменный
Общий поток : 34,4 Мбит/сек
Дата кодирования : UTC 2015-03-01 11:04:13
Программа кодирования : mkvmerge v7.3.0 ('Nouages') 64bit built on Oct 22 2014 18:53:34
Библиотека кодирования : libebml v1.3.0 + libmatroska v1.4.1
DURATION : 01:21:36.146000000
NUMBER_OF_FRAMES : 1331
NUMBER_OF_BYTES : 64583
_STATISTICS_WRITING_APP : mkvmerge v7.3.0 ('Nouages') 64bit built on Oct 22 2014 18:53:34
_STATISTICS_WRITING_DATE_UTC : 2015-03-01 11:04:13
_STATISTICS_TAGS : BPS DURATION NUMBER_OF_FRAMES NUMBER_OF_BYTES
Видео
Идентификатор : 1
Формат : AVC
Формат/Информация : Advanced Video Codec
Профиль формата : High@L4.1
Параметр CABAC формата : Да
Параметр ReFrames формата : 4 кадра
Идентификатор кодека : V_MPEG4/ISO/AVC
Продолжительность : 1 ч. 31 м.
Вид битрейта : Переменный
Максимальный битрейт : 31,0 Мбит/сек
Ширина : 1920 пикселей
Высота : 1080 пикселей
Соотношение сторон : 16:9
Режим частоты кадров : Постоянный
Частота кадров : 23,976 кадра/сек
Цветовое пространство : YUV
Субдискретизация насыщенности : 4:2:0
Битовая глубина : 8 бит
Тип развёртки : Прогрессивная
Default : Да
Forced : Нет
Аудио #1
Идентификатор : 2
Формат : DTS
Формат/Информация : Digital Theater Systems
Режим : 16
Параметр Endianness формата : Big
Идентификатор кодека : A_DTS
Продолжительность : 1 ч. 31 м.
Вид битрейта : Постоянный
Битрейт : 768 Кбит/сек
Каналы : 6 каналов
Расположение каналов : Front: L C R, Side: L R, LFE
Частота : 48,0 КГц
Битовая глубина : 24 бит
Метод сжатия : С потерями
Размер потока : 504 Мбайт (2%)
Язык : Russian
Default : Да
Forced : Нет
Аудио #2
Идентификатор : 3
Формат : AC-3
Формат/Информация : Audio Coding 3
Расширение режима : CM (complete main)
Параметр Endianness формата : Big
Идентификатор кодека : A_AC3
Продолжительность : 1 ч. 31 м.
Вид битрейта : Постоянный
Битрейт : 448 Кбит/сек
Каналы : 6 каналов
Расположение каналов : Front: L C R, Side: L R, LFE
Частота : 48,0 КГц
Битовая глубина : 16 бит
Метод сжатия : С потерями
Размер потока : 294 Мбайт (1%)
Язык : Russian
Default : Нет
Forced : Нет
Аудио #3
Идентификатор : 4
Формат : DTS
Формат/Информация : Digital Theater Systems
Профиль формата : MA / Core
Режим : 16
Параметр Endianness формата : Big
Идентификатор кодека : A_DTS
Продолжительность : 1 ч. 31 м.
Вид битрейта : Переменный
Битрейт : Неизвестно / 1509 Кбит/сек
Каналы : 8 каналов / 6 каналов
Расположение каналов : Front: L C R, Side: L R, Back: L R, LFE / Front: L C R, Side: L R, LFE
Частота : 48,0 КГц
Битовая глубина : 24 бит
Метод сжатия : Без потерь / Lossy
Язык : English
Default : Нет
Forced : Нет
Текст #1
Идентификатор : 5
Формат : UTF-8
Идентификатор кодека : S_TEXT/UTF8
Идентификатор кодека/Информация : UTF-8 Plain Text
Default : Да
Forced : Нет
Текст #2
Идентификатор : 6
Формат : UTF-8
Идентификатор кодека : S_TEXT/UTF8
Идентификатор кодека/Информация : UTF-8 Plain Text
Default : Нет
Forced : Нет
Текст #3
Идентификатор : 7
Формат : UTF-8
Идентификатор кодека : S_TEXT/UTF8
Идентификатор кодека/Информация : UTF-8 Plain Text
Default : Нет
Forced : Нет
Текст #4
Идентификатор : 8
Формат : UTF-8
Идентификатор кодека : S_TEXT/UTF8
Идентификатор кодека/Информация : UTF-8 Plain Text
Default : Нет
Forced : Нет
Меню
00:00:00.000 : en:Chapter 1
00:03:38.718 : en:Chapter 2
00:07:27.738 : en:Chapter 3
00:09:24.272 : en:Chapter 4
00:12:10.521 : en:Chapter 5
00:16:09.301 : en:Chapter 6
00:19:22.452 : en:Chapter 7
00:23:05.509 : en:Chapter 8
00:26:58.658 : en:Chapter 9
00:29:01.322 : en:Chapter 10
00:30:36.417 : en:Chapter 11
00:34:01.205 : en:Chapter 12
00:38:05.992 : en:Chapter 13
00:41:31.197 : en:Chapter 14
00:44:25.162 : en:Chapter 15
00:46:39.880 : en:Chapter 16
00:49:12.950 : en:Chapter 17
00:54:31.559 : en:Chapter 18
00:56:01.066 : en:Chapter 19
01:00:04.017 : en:Chapter 20
01:03:07.241 : en:Chapter 21
01:06:41.998 : en:Chapter 22
01:09:52.271 : en:Chapter 23
01:12:10.409 : en:Chapter 24
01:14:19.913 : en:Chapter 25
01:15:59.012 : en:Chapter 26
01:18:28.161 : en:Chapter 27
01:20:49.636 : en:Chapter 28







реклама партнёра


Вернуться к началу
 Профиль  
 
   Похожие торренты   Автор   Торрент   Размер 
В этой теме нет новых непрочитанных сообщений. Пингвины Мадагаскара 2D, 3D / Penguins of Madagascar 2D, 3D (Эрик Дарнелл, Саймон Дж. Смит) [мультфильм, комедия, приключения, семейный, 2014] BDRemux 1080p, Dub+Sub [3D-Video | Лицензия]

Dracon

10 | 3

33.3 ГБ

В этой теме нет новых непрочитанных сообщений. Пингвины Мадагаскара / Penguins of Madagascar (Эрик Дарнелл, Саймон Дж. Смит) [мультфильм, комедия, приключения, семейный, 2014] BDRip 1080p, Dub+Sub [Лицензия]

Dracon

280 | 13

9.99 ГБ

В этой теме нет новых непрочитанных сообщений. Пингвины Мадагаскара / Penguins of Madagascar (Эрик Дарнелл, Саймон Дж. Смит) [мультфильм, комедия, приключения, семейный, 2014] BDRip 1080p, Dub+Sub [3D-Video | Лицензия]

Dracon

22 | 3

8.36 ГБ

В этой теме нет новых непрочитанных сообщений. Пингвины Мадагаскара / Penguins of Madagascar (Эрик Дарнелл, Саймон Дж. Смит) [мультфильм, комедия, приключения, семейный, 2014] BDRip 1080p, Dub+Sub [3D-Video | Лицензия]

Dracon

81 | 3

7.3 ГБ

В этой теме нет новых непрочитанных сообщений. Пингвины Мадагаскара / Penguins of Madagascar (Эрик Дарнелл, Саймон Дж. Смит) [мультфильм, комедия, приключения, семейный, 2014] BDRip, Dub [лицензия]

Dracon

2263 | 73

1.36 ГБ

В этой теме нет новых непрочитанных сообщений. Пингвины Мадагаскара / Penguins of Madagascar (Эрик Дарнелл, Саймон Дж. Смит) [мультфильм, комедия, приключения, семейный, 2014] BDRip 720p, Dub+Sub [Лицензия]

Dracon

240 | 13

5.2 ГБ

В этой теме нет новых непрочитанных сообщений. Пингвины Мадагаскара / Penguins of Madagascar (Эрик Дарнелл, Саймон Дж. Смит) [мультфильм, комедия, приключения, семейный, 2014] BDRip 1080p, Dub+Sub [iTunes]

Dracon

76 | 3

4.08 ГБ


Начать новую тему Ответить на тему  [ 1 сообщение ] 




Для Мосгорсуда, Роскомнадзора и рекламодателей:: mosgorsud-torrent[собачка]yandex.ru