Торрент файл
скачать торрент магнет ссылка Добавлен: 26 фев 2015, 11:07
Размер: 4.54 ГБ
Сидеров: 5
Личеров: 3
Автор

СообщениеДобавлено: 26 фев 2015, 11:07 

Не в сети
Зам. Админа
Аватара пользователя
Дата регистрации:
02 дек 2010, 12:39
Спасибо: 12460 / 214
Сообщения: 27968
Год выхода: 2014
Жанр: мультфильм, фэнтези, мелодрама, комедия, приключения, семейный
Режиссер: Хорхе Р. Гутьеррес
В ролях: Диего Луна, Зои Салдана, Ченнинг Татум, Рон Перлман, Кристина Эпплгейт, Айс Кьюб, Кейт дель Кастильо, Гектор Элизондо, Дэнни Трехо, Карлос Аласраки

О фильме:
В мультфильме описывается романтическая история любви на фоне празднования Дня мертвых в Мексике.

Качество: BDRip [720p]
Видео: MPEG4 Video (H264), 1280x536, 23.98fps, 4779 Кбит/сек
Аудио: AC3, 48000Hz, 2ch, 384 Кбит/сек [Русский]
Аудио: DTS, 48000Hz, 6ch, 1509 Кбит/сек [английский]
Продолжительность: 01:35:27
Перевод: Дублированный [iTunes]
Субтитры: Английские
Общее
Уникальный идентификатор                 : 250963140880132142865702136347261487455 (0xBCCDBE27DE737CA296659A51440D495F)
Полное имя                               : D:prislanoeKn1g4.J1zn1.2014.D.BDRip.720p.mkv
Формат                                   : Matroska
Версия формата                           : Version 2
Размер файла                             : 4,54 Гбайт
Продолжительность                        : 1 ч. 35 м.
Общий поток                              : 6808 Кбит/сек
Дата кодирования                         : UTC 2015-02-25 14:38:17
Программа кодирования                    : mkvmerge v7.6.0 ('Garden of Dreams') 64bit built on Feb  8 2015 13:04:34
Библиотека кодирования                   : libebml v1.3.1 + libmatroska v1.4.2
DURATION                                 : 01:35:27.296000000
NUMBER_OF_FRAMES                         : 178978
NUMBER_OF_BYTES                          : 274910208
_STATISTICS_WRITING_APP                  : mkvmerge v7.6.0 ('Garden of Dreams') 64bit built on Feb  8 2015 13:04:34
_STATISTICS_WRITING_DATE_UTC             : 2015-02-25 14:38:17
_STATISTICS_TAGS                         : BPS DURATION NUMBER_OF_FRAMES NUMBER_OF_BYTES

Видео
Идентификатор                            : 1
Формат                                   : AVC
Формат/Информация                        : Advanced Video Codec
Профиль формата                          : High@L4.1
Параметр CABAC формата                   : Да
Параметр ReFrames формата                : 12 кадров
Идентификатор кодека                     : V_MPEG4/ISO/AVC
Продолжительность                        : 1 ч. 35 м.
Битрейт                                  : 4779 Кбит/сек
Ширина                                   : 1280 пикселей
Высота                                   : 536 пикселей
Соотношение сторон                       : 2,40:1
Режим частоты кадров                     : Постоянный
Частота кадров                           : 23,976 кадра/сек
Цветовое пространство                    : YUV
Субдискретизация насыщенности            : 4:2:0
Битовая глубина                          : 8 бит
Тип развёртки                            : Прогрессивная
Бит/(Пиксели*Кадры)                      : 0.291
Размер потока                            : 3,19 Гбайт (70%)
Библиотека кодирования                   : x264 core 142 r2431+42 c69a006 tMod [8-bit@all X86_64]
Настройки программы                      : cabac=1 / ref=12 / deblock=1:-3:-3 / analyse=0x3:0x113 / me=tesa / subme=10 / psy=1 / fade_compensate=0.00 / psy_rd=1.00:0.00 / mixed_ref=1 / me_range=24 / chroma_me=1 / trellis=2 / 8x8dct=1 / cqm=0 / deadzone=21,11 / fast_pskip=0 / chroma_qp_offset=-2 / threads=24 / lookahead_threads=4 / sliced_threads=0 / nr=0 / decimate=0 / interlaced=0 / bluray_compat=0 / constrained_intra=0 / fgo=0 / bframes=8 / b_pyramid=2 / b_adapt=2 / b_bias=0 / direct=3 / weightb=1 / open_gop=0 / weightp=2 / keyint=250 / keyint_min=23 / scenecut=40 / intra_refresh=0 / rc_lookahead=40 / rc=crf / mbtree=0 / crf=15.5000 / qcomp=0.60 / qpmin=0:0:0 / qpmax=69:69:69 / qpstep=4 / vbv_maxrate=62500 / vbv_bufsize=78125 / crf_max=0.0 / nal_hrd=none / filler=0 / ip_ratio=1.30 / pb_ratio=1.20 / aq=4:0.60 / aq-sensitivity=10.00 / aq-factor=1.00:1.00:1.00 / aq2=0 / aq3=0
Язык                                     : English
Default                                  : Да
Forced                                   : Нет
DURATION                                 : 01:35:24.678000000
NUMBER_OF_FRAMES                         : 137255
NUMBER_OF_BYTES                          : 3516849939
_STATISTICS_WRITING_APP                  : mkvmerge v7.6.0 ('Garden of Dreams') 64bit built on Feb  8 2015 13:04:34
_STATISTICS_WRITING_DATE_UTC             : 2015-02-25 14:38:17
_STATISTICS_TAGS                         : BPS DURATION NUMBER_OF_FRAMES NUMBER_OF_BYTES

Аудио #1
Идентификатор                            : 2
Формат                                   : AC-3
Формат/Информация                        : Audio Coding 3
Расширение режима                        : CM (complete main)
Параметр Endianness формата              : Big
Идентификатор кодека                     : A_AC3
Продолжительность                        : 1 ч. 35 м.
Вид битрейта                             : Постоянный
Битрейт                                  : 384 Кбит/сек
Каналы                                   : 2 канала
Расположение каналов                     : Front: L R
Частота                                  : 48,0 КГц
Битовая глубина                          : 16 бит
Метод сжатия                             : С потерями
Размер потока                            : 262 Мбайт (6%)
Язык                                     : Russian
Default                                  : Да
Forced                                   : Нет

Аудио #2
Идентификатор                            : 3
Формат                                   : DTS
Формат/Информация                        : Digital Theater Systems
Режим                                    : 16
Параметр Endianness формата              : Big
Идентификатор кодека                     : A_DTS
Продолжительность                        : 1 ч. 35 м.
Вид битрейта                             : Постоянный
Битрейт                                  : 1509 Кбит/сек
Каналы                                   : 6 каналов
Расположение каналов                     : Front: L C R, Side: L R, LFE
Частота                                  : 48,0 КГц
Битовая глубина                          : 24 бит
Метод сжатия                             : С потерями
Размер потока                            : 1,01 Гбайт (22%)
Заголовок                                : The.Book.of.Life.2014.P.BDRip.720p.ELEKTRI4KA [3imeMachi9e]
Язык                                     : English
Default                                  : Нет
Forced                                   : Нет

Текст #1
Идентификатор                            : 4
Формат                                   : UTF-8
Идентификатор кодека                     : S_TEXT/UTF8
Идентификатор кодека/Информация          : UTF-8 Plain Text
Язык                                     : English
Default                                  : Нет
Forced                                   : Нет

Текст #2
Идентификатор                            : 5
Формат                                   : UTF-8
Идентификатор кодека                     : S_TEXT/UTF8
Идентификатор кодека/Информация          : UTF-8 Plain Text
Заголовок                                : English Commentary
Язык                                     : English
Default                                  : Нет
Forced                                   : Нет

Меню
00:00:00.000                             : en:00:00:00.000
00:02:58.053                             : en:00:02:58.053
00:05:39.631                             : en:00:05:39.631
00:08:35.014                             : en:00:08:35.014
00:12:08.478                             : en:00:12:08.478
00:15:07.698                             : en:00:15:07.698
00:19:24.246                             : en:00:19:24.246
00:22:20.089                             : en:00:22:20.089
00:26:08.150                             : en:00:26:08.150
00:28:59.571                             : en:00:28:59.571
00:33:02.147                             : en:00:33:02.147
00:37:25.952                             : en:00:37:25.952
00:41:07.090                             : en:00:41:07.090
00:43:14.634                             : en:00:43:14.634
00:47:02.486                             : en:00:47:02.486
00:50:53.050                             : en:00:50:53.050
00:53:13.232                             : en:00:53:13.232
00:56:30.220                             : en:00:56:30.220
01:00:16.279                             : en:01:00:16.279
01:03:57.792                             : en:01:03:57.792
01:06:48.379                             : en:01:06:48.379
01:09:09.896                             : en:01:09:09.896
01:11:52.016                             : en:01:11:52.016
01:15:53.215                             : en:01:15:53.215
01:18:52.770                             : en:01:18:52.770
01:21:13.410                             : en:01:21:13.410
01:23:33.842                             : en:01:23:33.842
01:27:11.893                             : en:01:27:11.893








реклама партнёра


Вернуться к началу
 Профиль  
 
   Похожие торренты   Автор   Торрент   Размер 
В этой теме нет новых непрочитанных сообщений. Книга жизни  / The Book of Life (Хорхе Р. Гутьеррес) [Мультфильм, фэнтези, мелодрама, комедия, приключения, семейный, 2014] BDRip 1080p, Dub [iTunes]

Dracon

18 | 2

8 ГБ

В этой теме нет новых непрочитанных сообщений. Книга жизни / The Book of Life (Хорхе Р. Гутьеррес) [Мультфильм, Фэнтези, Мелодрама, Комедия, Приключения, Семейный, 2014] BDRip 1080p, Dub+Sub [3D-Video | iTunes]

Dracon

75 | 3

7.92 ГБ

В этой теме нет новых непрочитанных сообщений. Книга жизни / The Book of Life (Хорхе Р. Гутьеррес) [Мультфильм, фэнтези, мелодрама, комедия, приключения, семейный, 2014] BDRip 720p, Mvo

Dracon

64 | 6

4.54 ГБ

В этой теме нет новых непрочитанных сообщений. Книга жизни  / The Book of Life (Хорхе Р. Гутьеррес) [Мультфильм, фэнтези, мелодрама, комедия, приключения, семейный, 2014] HDRip, Dub [iTunes]

Dracon

0 | 2

700.38 МБ

В этой теме нет новых непрочитанных сообщений. Книга жизни / The Book of Life (Хорхе Р. Гутьеррес) [Мультфильм, фэнтези, мелодрама, комедия, приключения, семейный, 2014] HDRip, Dub [iTunes]

Dracon

14 | 2

1.37 ГБ

В этой теме нет новых непрочитанных сообщений. Книга жизни / The Book of Life (Хорхе Р. Гутьеррес) [Мультфильм, фэнтези, мелодрама, комедия, приключения, семейный, 2014] BDRip 1080p, Mvo [3D-Video]

Dracon

154 | 45

7.76 ГБ

В этой теме нет новых непрочитанных сообщений. Книга жизни / The Book of Life (Хорхе Р. Гутьеррес) [Мультфильм, фэнтези, мелодрама, комедия, приключения, семейный, 2014] HDRip, Mvo

Dracon

931 | 4

1.37 ГБ


Начать новую тему Ответить на тему  [ 1 сообщение ] 




Для Мосгорсуда, Роскомнадзора и рекламодателей:: mosgorsud-torrent[собачка]yandex.ru