Торрент файл
скачать торрент магнет ссылка Добавлен: 24 фев 2015, 11:45
Размер: 6.27 ГБ
Сидеров: 26
Личеров: 2
Автор

СообщениеДобавлено: 24 фев 2015, 11:45 

Не в сети
Зам. Админа
Аватара пользователя
Дата регистрации:
02 дек 2010, 12:39
Спасибо: 12623 / 214
Сообщения: 28012
Год выхода: 2014
Жанр: Мультфильм, приключения, семейный, полнометражный
Режиссер: Константин Феоктистов
В ролях: Сергей Маковецкий, Елизавета Боярская, Фёдор Бондарчук, Дмитрий Быковский-Ромашов, Елена Шульман, Олег Куликович, Лия Медведева, Мария Цветкова, Дмитрий Высоцкий, Анатолий Петров, Наталья Данилова

О фильме:
Придворный конь Гай Юлий Цезарь на свою беду подслушивает разговор бояр и узнает о заговоре против князя. Что же делать? Защитить-то князя некому! Богатыри далеко — ловят разбойника Потаню, Горыныч в отпуске, войско на учениях… Но если плохие парни собираются захватить мир, то кому-то же надо его спасти? Кто же он, настоящий герой, который придет на помощь? Конечно, конь Юлий! Настоящий стратег и «великий комбинатор». Он непременно всех спасет, а если не спасет, то хотя бы постарается. Главное, чтобы операция по спасению мира не обернулась полной катастрофой.

Качество: BDRip [1080p]
Видео: V_MPEG4/ISO/AVC,1920x1040,24 fps,10.3 Mbps
Аудио: DTS,48000Hz, 6 каналов, 1509 kbit/s
Продолжительность: 01:14:42
Перевод: Не требуется [Лицензия]  
General
Unique ID                      : 241407464880657226749519217026088149835 (0xB59D62F45DA78F8F91B308335B25A34B)
Complete name                  : E:Мультфильмы 3Три богатыря.Ход Конем.2014.BDRip.1080p.mkv
Format                         : Matroska
Format version                 : Version 2
File size                      : 6.27 GiB
Duration                       : 1h 14mn
Overall bit rate               : 12.0 Mbps
Encoded date                   : UTC 2015-02-23 17:41:26
Writing application            : mkvmerge v7.6.0 ('Garden of Dreams') 64bit built on Feb  8 2015 13:04:34
Writing library                : libebml v1.3.1 + libmatroska v1.4.2
DURATION                       : 01:14:42.966000000
NUMBER_OF_FRAMES               : 420278
NUMBER_OF_BYTES                : 845599336
_STATISTICS_WRITING_APP        : mkvmerge v7.6.0 ('Garden of Dreams') 64bit built on Feb  8 2015 13:04:34
_STATISTICS_WRITING_DATE_UTC   : 2015-02-23 17:41:26
_STATISTICS_TAGS               : BPS DURATION NUMBER_OF_FRAMES NUMBER_OF_BYTES

Video
ID                             : 1
Format                         : AVC
Format/Info                    : Advanced Video Codec
Format profile                 : High@L4.1
Format settings, CABAC         : Yes
Format settings, ReFrames      : 4 frames
Codec ID                       : V_MPEG4/ISO/AVC
Duration                       : 1h 14mn
Bit rate                       : 10.3 Mbps
Width                          : 1 920 pixels
Height                         : 1 040 pixels
Display aspect ratio           : 1.85:1
Frame rate mode                : Constant
Frame rate                     : 24.000 fps
Color space                    : YUV
Chroma subsampling             : 4:2:0
Bit depth                      : 8 bits
Scan type                      : Progressive
Bits/(Pixel*Frame)             : 0.214
Stream size                    : 5.36 GiB (85%)
Language                       : English
Default                        : Yes
Forced                         : No
DURATION                       : 01:14:42.917000000
NUMBER_OF_FRAMES               : 107512
NUMBER_OF_BYTES                : 5885757126
_STATISTICS_WRITING_APP        : mkvmerge v7.6.0 ('Garden of Dreams') 64bit built on Feb  8 2015 13:04:34
_STATISTICS_WRITING_DATE_UTC   : 2015-02-23 17:41:26
_STATISTICS_TAGS               : BPS DURATION NUMBER_OF_FRAMES NUMBER_OF_BYTES

Audio
ID                             : 2
Format                         : DTS
Format/Info                    : Digital Theater Systems
Mode                           : 16
Format settings, Endianness    : Big
Codec ID                       : A_DTS
Duration                       : 1h 14mn
Bit rate mode                  : Constant
Bit rate                       : 1 509 Kbps
Channel(s)                     : 6 channels
Channel positions              : Front: L C R, Side: L R, LFE
Sampling rate                  : 48.0 KHz
Bit depth                      : 24 bits
Compression mode               : Lossy
Stream size                    : 806 MiB (13%)
Language                       : Russian
Default                        : Yes
Forced                         : No

Menu #1
00:00:00.000                   : ru:Chapter 1
00:09:15.916                   : ru:Chapter 2
00:18:48.000                   : ru:Chapter 3
00:27:35.750                   : ru:Chapter 4
00:37:23.791                   : ru:Chapter 5
00:47:10.083                   : ru:Chapter 6
00:54:14.791                   : ru:Chapter 7
01:03:36.416                   : ru:Chapter 8

Menu #2
00:00:00.000                   : ru:Chapter 1
00:09:15.916                   : ru:Chapter 2
00:18:48.000                   : ru:Chapter 3
00:27:35.750                   : ru:Chapter 4
00:37:23.791                   : ru:Chapter 5
00:47:10.083                   : ru:Chapter 6
00:54:14.791                   : ru:Chapter 7
01:03:36.416                   : ru:Chapter 8









реклама партнёра


Вернуться к началу
 Профиль  
 
   Похожие торренты   Автор   Торрент   Размер 
В этой теме нет новых непрочитанных сообщений. Три богатыря: Ход конем (Константин Феоктистов) [мультфильм, комедия, приключения, фэнтези, 2014] BDRip 1080p [Лицензия | 3D-Video]

Dracon

232 | 6

3.26 ГБ

В этой теме нет новых непрочитанных сообщений. Три богатыря: Ход Конем (Константин Феоктистов) [мультфильм, комедия, приключения, фэнтези, 2014] BDRemux 1080p [Лицензия]

Dracon

7 | 2

14.41 ГБ

В этой теме нет новых непрочитанных сообщений. Три богатыря: Ход конем (Константин Феоктистов) [мультфильм, комедия, приключения, фэнтези, 2014] BDRip 720p [Лицензия]

Dracon

15 | 3

3.65 ГБ

В этой теме нет новых непрочитанных сообщений. Три богатыря: Ход конем (Константин Феоктистов) [мультфильм, комедия, приключения, фэнтези, 2014] HDRip [Лицензия]

Dracon

23 | 2

702.85 МБ

В этой теме нет новых непрочитанных сообщений. Три богатыря: Ход конем (Константин Феоктистов) [мультфильм, комедия, приключения, фэнтези, 2014] HDRip [Лицензия]

Dracon

51 | 3

1.37 ГБ

В этой теме нет новых непрочитанных сообщений. Три богатыря: Ход конем (Константин Феоктистов) [мультфильм, комедия, приключения, фэнтези, 2014] WEB-DLRip 1080p

Dracon

60 | 2

2.7 ГБ

В этой теме нет новых непрочитанных сообщений. Три богатыря: Ход конем (Константин Феоктистов) [мультфильм, комедия, приключения, фэнтези, 2014] CAMRip

Dracon

192 | 3

1.36 ГБ


Начать новую тему Ответить на тему  [ 1 сообщение ] 




Для Мосгорсуда, Роскомнадзора и рекламодателей:: mosgorsud-torrent[собачка]yandex.ru