Торрент файл
скачать торрент магнет ссылка Добавлен: 08 апр 2011, 21:08
Размер: 697.53 МБ
Сидеров: 16
Личеров: 6
Автор

СообщениеДобавлено: 08 апр 2011, 21:08 

Не в сети
Супермодератор
Аватара пользователя
Дата регистрации:
22 май 2010, 11:03
Возраст: 34
Спасибо: 7853 / 13
Сообщения: 49837
Астерикс и Клеопатра / Astérix et Cléopâtre



Перевод:Профессиональный (многоголосый, закадровый)
Субтитры:Отсутствуют
Формат:DVDRip, AVI, XviD, MP3
Страна:Франция, Бельгия
Режиссер:Рене Госинни, Альбер Удерзо, Jos Marissen
Жанр:мультфильм, комедия, приключения, семейный, история
Продолжительность:01:09:18
Год выпуска:1968

Вролях: Роже Карель, Жак Морел, Мишлин Дэкс, Рене Госинни, Анри Лабюсьер, Пьер Трабо

Описание: Египетская царица Клеопатра была не только очень красива, но и столь же строптива. Ее страшно возмутили слова Цезаря, что египтяне навсегда останутся рабами, поскольку они — народ ленивый и глупый.

Царица решила утереть нос обнаглевшему императору. А помогут ей в этом друид Починикс с друзьями Астериксом и Обеликсом. Однажды они уже победили римские легионы. Что ждет их в Египте?


РейтингКиноПоиск.RU: 7.750
Рейтингна IMDB: 7.0/10

Видео:560x416 (4:3), 25 fps, XviD MPEG-4, ~1 269 kbps avg, 0.218 bit/pixel
Аудио:Русский: 48 kHz, MP3, 2 ch, ~128 kbps avg [Профессиональный (многоголосый, закадровый)]

Слоган:«Astérix meets the Queen of the Nile!»


General
Complete name: K:\i_Kleopatra_DVDRip_1968_ranciya_mult.avi
Format: AVI
Format/Info: Audio Video Interleave
File size: 698 MiB
Duration: 1h 9mn
Overall bit rate: 1 407 Kbps
Writing application: FairUse Wizard - http://fairusewizard.com
Writing library: The best and REALLY easy backup tool

Video
ID: 0
Format: MPEG-4 Visual
Format profile: Advanced Simple@L5
Format settings, BVOP: Yes
Format settings, QPel: No
Format settings, GMC: No warppoints
Format settings, Matrix: Default (H.263)
Muxing mode: Packed bitstream
Codec ID: XVID
Codec ID/Hint: XviD
Duration: 1h 9mn
Bit rate: 1 269 Kbps
Width: 560 pixels
Height: 416 pixels
Display aspect ratio: 4:3
Frame rate: 25.000 fps
Color space: YUV
Chroma subsampling: 4:2:0
Bit depth: 8 bits
Scan type: Progressive
Bits/(Pixel*Frame): 0.218
Stream size: 629 MiB (90%)
Writing library: XviD 1.1.0 (UTC 2005-11-22)

Audio
ID: 1
Format: MPEG Audio
Format version: Version 1
Format profile: Layer 3
Mode: Joint stereo
Mode extension: MS Stereo
Codec ID: 55
Codec ID/Hint: MP3
Duration: 1h 9mn
Bit rate mode: Constant
Bit rate: 128 Kbps
Channel(s): 2 channels
Sampling rate: 48.0 KHz
Stream size: 63.5 MiB (9%)
Alignment: Aligned on interleaves
Interleave, duration: 40 ms (1.00 video frame)
Interleave, preload duration: 504 ms
Writing library: LAME3.97b
Encoding settings: -m j -V 4 -q 2 -lowpass 17 -b 128
















Вернуться к началу
 Профиль Отправить личное сообщение  
 
   Похожие торренты   Автор   Торрент   Размер 
В этой теме нет новых непрочитанных сообщений. Астерикс и Клеопатра / Asterix et Cleopatre [Мультфильм, приключения, 1968] HDRip, Mvo

salma3

11 | 9

742.83 МБ

В этой теме нет новых непрочитанных сообщений. Астерикс и Обеликс: Миссия Клеопатра / Astеrix & Obеlix: Mission Clеopаtre [фэнтези, комедия, приключения, семейный, 2001] BDRip, Dub

salma3

33 | 20

2.18 ГБ

В этой теме нет новых непрочитанных сообщений. Астерикс и Обеликс против Цезаря / Asterix et Obelix contre Cesar [фэнтези, комедия, приключения, семейный, 1999] BDRip, Dub+Sub

salma3

40 | 16

2.18 ГБ

В этой теме нет новых непрочитанных сообщений. Астерикс и тайное зелье / Asterix: Le secret de la potion magique [Мультфильм, фэнтези, приключения, 2018] BDRip 1080p, Dub [iTunes]

salma3

0 | 1

7.22 ГБ

В этой теме нет новых непрочитанных сообщений. Астерикс из Галлии / Astérix le Gaulois [мультфильм, боевик, комедия, 1967] BDRip 1080p, Mvo

salma3

23 | 3

4.76 ГБ

В этой теме нет новых непрочитанных сообщений. Астерикс и тайное зелье / Asterix: Le secret de la potion magique [Мультфильм, фэнтези, приключения, 2018] BDRemux 1080p, Dub [iTunes] [3D-Video]

salma3

3 | 1

21.7 ГБ

В этой теме нет новых непрочитанных сообщений. Астерикс и тайное зелье / Astérix: Le secret de la potion magique [Мультфильм, фэнтези, 2018] HDRip, Dub [iTunes]

salma3

1133 | 30

1.46 ГБ


Начать новую тему Ответить на тему  [ 1 сообщение ] 




Для Мосгорсуда, Роскомнадзора и рекламодателей:: mosgorsud-torrent[собачка]yandex.ru
cron