Торрент файл
скачать торрент магнет ссылка Добавлен: 17 фев 2015, 12:07
Размер: 4.08 ГБ
Сидеров: 76
Личеров: 3
Автор

СообщениеДобавлено: 17 фев 2015, 12:07 

Не в сети
Зам. Админа
Аватара пользователя
Дата регистрации:
02 дек 2010, 12:39
Спасибо: 12656 / 214
Сообщения: 28010
Год выпуска: 2014
Жанр: Мультфильм, комедия, приключения, семейный, полнометражный
Выпущено: США, DreamWorks Animation, Pacific Data Images (PDI)
Режиссер: Эрик Дарнелл, Саймон Дж. Смит
В ролях: Том МакГрат, Крис Миллер, Кристофер Найтс, Бенедикт Камбербэтч, Петер Стормаре, Джон Малкович, Кен Жонг, Аннет Махендру
О фильме: Сверхсекретные операции, железная дисциплина и выдержка, а главное, феноменальная находчивость — вот критерии успешной миссии, даже если она кажется невыполнимой.


Качество: BDRip (1080p)
Видео: MPEG-4 AVC, 5555 Кбит/с, 1920x1032, 23.976 кадр/с
Аудио: Русский, английский (AC3, 6 ch, 384 Кбит/с)
Размер: 4.08 ГБ
Продолжительность: 01:32:20
Перевод: Дублированный
Субтитры: Русские, украинские

Сохранены оригинальные чаптеры.

x264 [info]: frame I:1258 Avg QP:14.86 size:159313
x264 [info]: frame P:41816 Avg QP:18.54 size: 53042
x264 [info]: frame B:89744 Avg QP:19.37 size: 15917
x264 [info]: consecutive B-frames: 7.8% 12.3% 10.6% 38.9% 7.0% 22.3% 0.4% 0.1% 0.2% 0.4%
x264 [info]: mb I I16..4: 10.0% 62.6% 27.4%
x264 [info]: mb P I16..4: 5.4% 18.4% 2.5% P16..4: 30.3% 27.4% 5.0% 0.9% 0.0% skip:10.1%
x264 [info]: mb B I16..4: 1.2% 2.1% 0.2% B16..8: 30.6% 13.9% 1.9% direct: 4.5% skip:45.5% L0:41.4% L1:49.2% BI: 9.3%
x264 [info]: 8x8 transform intra:67.5% inter:61.3%
x264 [info]: direct mvs spatial:95.6% temporal:4.4%
x264 [info]: coded y,uvDC,uvAC intra: 61.6% 83.7% 54.8% inter: 11.9% 22.7% 9.1%
x264 [info]: i16 v,h,dc,p: 17% 23% 8% 51%
x264 [info]: i8 v,h,dc,ddl,ddr,vr,hd,vl,hu: 11% 14% 12% 8% 9% 10% 12% 10% 15%
x264 [info]: i4 v,h,dc,ddl,ddr,vr,hd,vl,hu: 18% 18% 15% 6% 9% 9% 9% 7% 9%
x264 [info]: i8c dc,h,v,p: 33% 31% 18% 18%
x264 [info]: Weighted P-Frames: Y:6.3% UV:5.0%
x264 [info]: ref P L0: 65.0% 5.6% 20.0% 7.7% 1.5% 0.1%
x264 [info]: ref B L0: 88.4% 9.4% 2.2%
x264 [info]: ref B L1: 95.4% 4.6%
x264 [info]: kb/s:5555.51
Общее
Уникальный идентификатор : 186096513701476362859158582720306640833 (0x8C00E2841CC2201AB2A0D52D363077C1)
Полное имя : D:ЗагрузкиPenguins.Of.Madagascar.2014.x264.BDRip.(1080p).ExKinoRay.mkv
Формат : Matroska
Версия формата : Version 2
Размер файла : 4,08 Гбайт
Продолжительность : 1 ч. 32 м.
Общий поток : 6322 Кбит/сек
Название фильма : Пингвины Мадагаскара.2014.Rip by: ollan
Дата кодирования : UTC 2015-02-17 03:14:18
Программа кодирования : mkvmerge v5.6.0 ('Kenya Kane') built on May 27 2012 16:44:04
Библиотека кодирования : libebml v1.2.3 + libmatroska v1.3.0

Видео
Идентификатор : 1
Формат : AVC
Формат/Информация : Advanced Video Codec
Профиль формата : High@L4.1
Параметр CABAC формата : Да
Параметр ReFrames формата : 4 кадра
Идентификатор кодека : V_MPEG4/ISO/AVC
Продолжительность : 1 ч. 32 м.
Битрейт : 5555 Кбит/сек
Ширина : 1920 пикселей
Высота : 1032 пикселя
Соотношение сторон : 1,85:1
Режим частоты кадров : Постоянный
Частота кадров : 23,976 кадра/сек
Цветовое пространство : YUV
Субдискретизация насыщенности : 4:2:0
Битовая глубина : 8 бит
Тип развёртки : Прогрессивная
Бит/(Пиксели*Кадры) : 0.117
Размер потока : 3,50 Гбайт (86%)
Библиотека кодирования : x264 core 125 r2200 999b753
Настройки программы : cabac=1 / ref=4 / deblock=1:-3:-3 / analyse=0x3:0x133 / me=umh / subme=11 / psy=1 / psy_rd=1.00:0.10 / mixed_ref=1 / me_range=32 / chroma_me=1 / trellis=2 / 8x8dct=1 / cqm=0 / deadzone=21,11 / fast_pskip=0 / chroma_qp_offset=-3 / threads=12 / lookahead_threads=2 / sliced_threads=0 / nr=0 / decimate=0 / interlaced=0 / bluray_compat=0 / constrained_intra=0 / bframes=9 / b_pyramid=2 / b_adapt=2 / b_bias=0 / direct=3 / weightb=1 / open_gop=0 / weightp=2 / keyint=240 / keyint_min=23 / scenecut=40 / intra_refresh=0 / rc=2pass / mbtree=0 / bitrate=5555 / ratetol=1.0 / qcomp=0.60 / qpmin=0 / qpmax=69 / qpstep=4 / cplxblur=20.0 / qblur=0.5 / ip_ratio=1.40 / pb_ratio=1.30 / aq=1:1.00
Язык : English
Default : Да
Forced : Нет

Аудио #1
Идентификатор : 2
Формат : AC-3
Формат/Информация : Audio Coding 3
Расширение режима : CM (complete main)
Параметр Endianness формата : Big
Идентификатор кодека : A_AC3
Продолжительность : 1 ч. 32 м.
Вид битрейта : Постоянный
Битрейт : 384 Кбит/сек
Каналы : 6 каналов
Расположение каналов : Front: L C R, Side: L R, LFE
Частота : 48,0 КГц
Битовая глубина : 16 бит
Метод сжатия : С потерями
Размер потока : 254 Мбайт (6%)
Язык : Russian
Default : Да
Forced : Нет

Аудио #2
Идентификатор : 3
Формат : AC-3
Формат/Информация : Audio Coding 3
Расширение режима : CM (complete main)
Параметр Endianness формата : Big
Идентификатор кодека : A_AC3
Продолжительность : 1 ч. 32 м.
Вид битрейта : Постоянный
Битрейт : 384 Кбит/сек
Каналы : 6 каналов
Расположение каналов : Front: L C R, Side: L R, LFE
Частота : 48,0 КГц
Битовая глубина : 16 бит
Метод сжатия : С потерями
Размер потока : 254 Мбайт (6%)
Язык : English
Default : Нет
Forced : Нет

Текст #1
Идентификатор : 4
Формат : UTF-8
Идентификатор кодека : S_TEXT/UTF8
Идентификатор кодека/Информация : UTF-8 Plain Text
Заголовок : Forced
Язык : Russian
Default : Да
Forced : Нет

Текст #2
Идентификатор : 5
Формат : UTF-8
Идентификатор кодека : S_TEXT/UTF8
Идентификатор кодека/Информация : UTF-8 Plain Text
Заголовок : Full
Язык : Russian
Default : Нет
Forced : Нет

Текст #3
Идентификатор : 6
Формат : UTF-8
Идентификатор кодека : S_TEXT/UTF8
Идентификатор кодека/Информация : UTF-8 Plain Text
Заголовок : Forced
Язык : Ukrainian
Default : Нет
Forced : Нет

Текст #4
Идентификатор : 7
Формат : UTF-8
Идентификатор кодека : S_TEXT/UTF8
Идентификатор кодека/Информация : UTF-8 Plain Text
Заголовок : Full
Язык : Ukrainian
Default : Нет
Forced : Нет

Меню
00:00:00.000 : en:Chapter 01
00:03:38.000 : en:Chapter 02
00:07:27.000 : en:Chapter 03
00:09:23.000 : en:Chapter 04
00:12:09.000 : en:Chapter 05
00:16:08.000 : en:Chapter 06
00:19:21.000 : en:Chapter 07
00:23:02.000 : en:Chapter 08
00:26:57.000 : en:Chapter 09
00:28:59.000 : en:Chapter 10
00:30:34.000 : en:Chapter 11
00:33:59.000 : en:Chapter 12
00:38:03.000 : en:Chapter 13
00:41:28.000 : en:Chapter 14
00:44:22.000 : en:Chapter 15
00:46:37.000 : en:Chapter 16
00:49:10.000 : en:Chapter 17
00:54:28.000 : en:Chapter 18
00:55:57.000 : en:Chapter 19
01:00:00.000 : en:Chapter 20
01:03:03.000 : en:Chapter 21
01:06:37.000 : en:Chapter 22
01:09:48.000 : en:Chapter 23
01:12:06.000 : en:Chapter 24
01:14:15.000 : en:Chapter 25
01:15:54.000 : en:Chapter 26
01:18:23.000 : en:Chapter 27
01:20:44.000 : en:Chapter 28








Вернуться к началу
 Профиль  
 
   Похожие торренты   Автор   Торрент   Размер 
В этой теме нет новых непрочитанных сообщений. Невероятная тайна Лулу / Loulou, l'incroyable secret (Эрик Омон) [мультфильм, семейный, 2013] BDRip 1080p, Dub [iTunes]

Dracon

273 | 60

4.59 ГБ

В этой теме нет новых непрочитанных сообщений. Дозор джунглей / Les as de la jungle [Мультфильм, комедия, приключения, семейный, 2017] BDRip 1080p, Dub [iTunes]

salma3

283 | 17

1.99 ГБ

В этой теме нет новых непрочитанных сообщений. Волки и овцы: бе-е-е-зумное превращение [Мультфильм, семейный, комедия, приключения, 2016] BDRip 1080p [iTunes]

salma3

637 | 118

4.45 ГБ

В этой теме нет новых непрочитанных сообщений. Аисты / Storks ( Мультфильм, Фэнтези, Комедия, Приключения, Семейный, 2016) BDRip 1080p от Ash61 | 3D-Video | halfOU | iTunes

marya111

129 | 91

9.19 ГБ

В этой теме нет новых непрочитанных сообщений. Волки и овцы: бе-е-е-зумное превращение (Мультфильм, Семейный, Комедия, Приключения, 2016) BDRip 1080p от Ash61 | 3D-Video | halfOU | iTunes

marya111

91 | 32

8.87 ГБ

В этой теме нет новых непрочитанных сообщений. Ледниковый период: Столкновение неизбежно ( Мультфильм, Фантастика, Комедия, Приключения, Семейный, 2016) BDRip 1080p от Ash61 | 3D-Video | halfOU | iTunes

marya111

155 | 10

8.29 ГБ

В этой теме нет новых непрочитанных сообщений. Снупи и мелочь пузатая в кино [мультфильм, комедия, приключения, семейный, 2015] WEB-DL 1080p, Dub [iTunes]

Dracon

148 | 15

3.56 ГБ


Начать новую тему Ответить на тему  [ 1 сообщение ] 




Для Мосгорсуда, Роскомнадзора и рекламодателей:: mosgorsud-torrent[собачка]yandex.ru
cron