Торрент файл
скачать торрент магнет ссылка Добавлен: 08 апр 2011, 21:04
Размер: 1.37 ГБ
Сидеров: 25
Личеров: 6
Автор

СообщениеДобавлено: 08 апр 2011, 21:04 

Не в сети
Супермодератор
Аватара пользователя
Дата регистрации:
22 май 2010, 11:03
Возраст: 31
Спасибо: 7509 / 13
Сообщения: 49940
Правдивая история красной шапки / Hoodwinked!


Перевод: Профессиональный (полное дублирование), cубтитры: отсутствуют

Формат: DVDRip, AVI, XviD, AC3

Страна: США
Режиссер: Кори Эдвардс, Тодд Эдвардс, Тони Лич
Жанр: комедия, семейный, мультфильм
Продолжительность: 01:17:34
Год выпуска: 2005

В ролях: Энн Хэтэуэй, Гленн Клоуз, Джеймс Белуши, Патрик Варбертон, Энтони Андерсон, Дэвид Огден, Стайерз Иксзибит, Чазз Пальминтери, Энди Дик, Кори Эдвардс.
Роли дублировали: Ёлка, Гарик Сукачев, Роман Трахтенберг, Пётр Иващенко, Ольга Шорохова.

Описание: Новый взгляд на знаменитую сказку. Здесь вы найдете и новых героев (Дергунчик, Шерстопуз, кролик, змея-продюсер, поющий козел и, конечно, стражи закона во главе с лягушкой-детективом). Современный юмор и хороший сюжет! Вы думаете, что знаете эту историю наизусть. Но что если Красная Шапочка совсем не та, кем кажется? За детективное расследование принимается детектив Лягушка. У него много вопросов: почему Бабушка поселилась так далеко, кто отправил Шапочку через глухой лес, чем на самом деле промышляет Волк?

Главный лозунг мульта: "Если в лесу упало дерево, надо выслушать три истории: твою, мою, и этого дерева".

Рейтинг на IMDB: 6.70 (19 319)
Рейтинг MPAA: PG

Видео: MPEG4 Video XviD 704x384 (16:9) 25.00fps, 2068 Kbps, 0.306 Bits/Pixel
Аудио: Dolby AC3 48000Hz 6ch 448kbps

бюджет: $15 000 000
сборы в США: $51 386 611
сборы в мире: + $20 725 708 = $72 112 319
сборы в России: $791 555
DVD в США: $23 942 510
зрители: США - 7.82 млн.Бразилия - 1.45 млн.Великобритания - 1.19 млн.
премьера (мир): 16 мая 2004
премьера (РФ): 2 марта 2006, «Централ Партнершип»
релиз на DVD: 13 августа 2009, 25 декабря 2008, «CP-DIGITAL»

Format: AVI
Format/Info: Audio Video Interleave
File size: 1.37 GiB
Duration: 1h 17mn
Overall bit rate: 2 525 Kbps
Writing application: VirtualDubMod 1.5.4.1 (build 2178/release)
Writing library: VirtualDubMod build 2178/release

Video
ID: 0
Format: MPEG-4 Visual
Format profile: AdvancedSimple@L5
Format settings, BVOP: Yes
Format settings, QPel: No
Format settings, GMC: No warppoints
Format settings, Matrix: Default (MPEG)
Muxing mode: Packed bitstream
Codec ID: XVID
Codec ID/Hint: XviD
Duration: 1h 17mn
Bit rate: 2 068 Kbps
Width: 704 pixels
Height: 384 pixels
Display aspect ratio: 16:9
Frame rate: 25.000 fps
Resolution: 24 bits
Colorimetry: 4:2:0
Scan type: Progressive
Bits/(Pixel*Frame): 0.306
Stream size: 1.12 GiB (82%)
Writing library: XviD 1.0.3 (UTC 2004-12-20)

Audio
ID: 1
Format: AC-3
Format/Info: Audio Coding 3
Codec ID: 2000
Duration: 1h 17mn
Bit rate mode: Constant
Bit rate: 448 Kbps
Channel(s): 6 channels
Channel positions: Front: L C R, Surround: L R, LFE
Sampling rate: 48.0 KHz
Stream size: 249 MiB (18%)
Alignment: Split accross interleaves
Interleave, duration: 40 ms (1.00 video frame)
Interleave, preload duration: 500 ms











реклама партнёра


Вернуться к началу
 Профиль Отправить личное сообщение  
 
   Похожие торренты   Автор   Торрент   Размер 
В этой теме нет новых непрочитанных сообщений. Святые и Странники / Saints and Strangers [S01] (Пол А. Эдвардс) [исторический, драма, 2015] HDTVRip [ViruseProject]

Dracon

531 | 127

2.29 ГБ

В этой теме нет новых непрочитанных сообщений. Святые и чужие / Saints and Strangers [s01] (Пол А. Эдвардс) [драма, 2015] HDTV 720p [Jaskier]

Dracon

372 | 174

6.36 ГБ

В этой теме нет новых непрочитанных сообщений. Святые и Странники / Saints and Strangers [S01] (Пол А. Эдвардс) [исторический, драма, 2015] HDTVRip 720р [ViruseProject]

Dracon

221 | 35

4.3 ГБ

В этой теме нет новых непрочитанных сообщений. Готэм / Gotham [02х01-07 из 22] (Дэнни Кэннон, Т.Дж. Скотт, Пол А. Эдвардс) [2015, триллер, драма, криминал, WEB-DLRip | LostFilm]

Nickolas3435

109 | 263

3.76 ГБ

В этой теме нет новых непрочитанных сообщений. Готэм / Gotham / 2 сезон 1-22 серия из 22 (Дэнни Кэннон, Т.Дж. Скотт, Пол А. Эдвардс) [2015, триллер, драма, криминал, WEB-DLRip | LostFilm]

Dracon

67 | 258

8.6 ГБ

В этой теме нет новых непрочитанных сообщений. Готэм / Gotham / 2 сезон 1-22 серия из 22 (Дэнни Кэннон, Т.Дж. Скотт, Пол А. Эдвардс) [2015, триллер, драма, криминал, WEB-DLRip | LostFilm]

Dracon

116 | 90

11.81 ГБ

В этой теме нет новых непрочитанных сообщений. Сонная Лощина / Sleepy Hollow [03х01-07 из 18] (Кен Олин, Эрнест Р. Дикерсон, Пол А. Эдвардс) [2015, фэнтези, триллер, драма, детектив, приключения, WEB-DLRip | LostFilm]

Dracon

254 | 612

3.25 ГБ


Начать новую тему Ответить на тему  [ 1 сообщение ] 




Для Мосгорсуда, Роскомнадзора и рекламодателей:: mosgorsud-torrent[собачка]yandex.ru