Торрент файл
скачать торрент магнет ссылка Добавлен: 04 фев 2015, 23:39
Размер: 5.36 ГБ
Сидеров: 16
Личеров: 7
Автор

СообщениеДобавлено: 04 фев 2015, 23:39 

Не в сети
Супермодератор
Аватара пользователя
Дата регистрации:
06 июн 2014, 07:51
Спасибо: 576 / 0
Сообщения: 2002
Информация о фильме
Название: Звездные войны: Повстанцы
Оригинальное название: Star Wars Rebels
Год выхода: 2014
Жанр: мультфильм, фантастика, фэнтези, боевик, приключения
Режиссер: Стюарт Ли, Дэйв Филони, Стивен Дж. Ли
В ролях: Ванесса Маршалл, Фредди Принц мл., Стивен Блум, Тия Сиркар, Тейлор Грэй, Дэвид Ойелоуо, Кит Шарабайка, Лайам О’Брайэн, Грег Уайзман, Грег Эллис
Роли озвучивали: Тимиркан Сиюхов и Маргарита Щелкунова

О фильме: Анимационный телесериал, действие которого разворачивается в период между фильмами «Звёздные войны. Эпизод III: Месть ситхов» и «Звёздные войны. Эпизод IV: Новая надежда». Сериал будет рассказывать о разномастной группе повстанцев, экипаже космического корабля «Призрак», и их борьбе против Галактической Империи.

Продолжительность: 1 x~00:22:00 + 1 x~00:44:00
Перевод: Любительский (двухголосый) [LE-Production]
Субтитры: отсутствуют

Файл
Формат: MKV
Качество: WEB-DL 720p
Видео: 1280 x 720 (16:9), 23.976 fps, AVC (x264), High@L3.1, 4215 kbps avg, 0.191 bit/pixel
Аудио #1: русский: 48 kHz, AC3 Dolby Digital, 3/2 (L,C,R,l,r) + LFE ch, ~384.00 kbps avg | LE-Production
Аудио #2: английский: 48 kHz, AC3 Dolby Digital, 3/2 (L,C,R,l,r) + LFE ch, ~384.00 kbps avg | Оригинал
Перевод на русский: Максим Митин

01 - Spark of Rebellion, Parts 1 & 2
02 - Droids in Distress
03 - Fighter Flight
04 - Rise of the Old Masters
05 - Out of Darkness
Общее
Полное имя : star.wars.rebels.s01.720p.web-dl.dd5.1.le-productionstar.wars.rebels.s01e01.spark.of.rebellion.720p.web-dl.dd5.1.le-production.mkv
Формат : Matroska
Размер файла : 1,51 Гбайт
Продолжительность : 43 м.
Общий поток : 4984 Кбит/сек
Дата кодирования : UTC 2014-10-07 18:22:36
Программа кодирования : mkvmerge v7.1.0 ('Good Love') 64bit built on Jul 27 2014 13:06:55
Библиотека кодирования : libebml v1.3.0 + libmatroska v1.4.1
Видео
Идентификатор : 1
Формат : AVC
Формат/Информация : Advanced Video Codec
Профиль формата : High@L3.1
Параметр CABAC формата : Да
Параметр ReFrames формата : 4 кадры
Идентификатор кодека : V_MPEG4/ISO/AVC
Продолжительность : 43 м.
Битрейт : 4215 Кбит/сек
Ширина : 1280 пикс.
Высота : 720 пикс.
Соотношение сторон : 16:9
Частота кадров : 23,976 кадр/сек
Цветовое пространство : YUV
Подвыборка цветности : 4:2:0
Битовая глубина : 8 бит
Тип развёртки : Прогрессивная
Бит/(Пиксели*Кадры) : 0.191
Размер потока : 1,25 Гбайт (83%)
Заголовок : LE-Production
Библиотека кодирования : x264 core 130 r2273 b3065e6
Настройки программы : cabac=1 / ref=1 / deblock=1:-1:-1 / analyse=0x3:0x3 / me=dia / subme=1 / psy=1 / psy_rd=1.00:0.10 / mixed_ref=0 / me_range=16 / chroma_me=1 / trellis=0 / 8x8dct=1 / cqm=0 / deadzone=21,11 / fast_pskip=1 / chroma_qp_offset=0 / threads=12 / lookahead_threads=2 / sliced_threads=0 / nr=0 / decimate=1 / interlaced=0 / bluray_compat=0 / constrained_intra=0 / bframes=3 / b_pyramid=2 / b_adapt=1 / b_bias=0 / direct=3 / weightb=1 / open_gop=0 / weightp=1 / keyint=250 / keyint_min=23 / scenecut=40 / intra_refresh=0 / rc=2pass / mbtree=0 / bitrate=4215 / ratetol=1.0 / qcomp=0.60 / qpmin=0 / qpmax=69 / qpstep=4 / cplxblur=20.0 / qblur=0.5 / ip_ratio=1.40 / pb_ratio=1.30 / aq=1:1.00
Язык : Russian
Аудио #1
Идентификатор : 2
Формат : AC-3
Формат/Информация : Audio Coding 3
Расширение режима : CM (complete main)
Идентификатор кодека : A_AC3
Продолжительность : 43 м.
Вид битрейта : Постоянный
Битрейт : 384 Кбит/сек
Канал(ы) : 6 канала(ов)
Расположение каналов : Front: L C R, Side: L R, LFE
Частота : 48,0 КГц
Битовая глубина : 16 бит
Метод сжатия : С потерями
Размер потока : 119 Мбайт (8%)
Заголовок : LE-Production (Тимиркан Сиюхов и Маргарита Щелкунова)
Язык : Russian
Аудио #2
Идентификатор : 3
Формат : AC-3
Формат/Информация : Audio Coding 3
Расширение режима : CM (complete main)
Идентификатор кодека : A_AC3
Продолжительность : 43 м.
Вид битрейта : Постоянный
Битрейт : 384 Кбит/сек
Канал(ы) : 6 канала(ов)
Расположение каналов : Front: L C R, Side: L R, LFE
Частота : 48,0 КГц
Битовая глубина : 16 бит
Метод сжатия : С потерями
Размер потока : 119 Мбайт (8%)
Язык : English




реклама партнёра


Вернуться к началу
 Профиль Отправить личное сообщение  
 
   Похожие торренты   Автор   Торрент   Размер 
В этой теме нет новых непрочитанных сообщений. Звездные войны: Повстанцы / Star Wars Rebels [01x01-04] (Стюарт Ли, Дэйв Филони, Стивен Дж. Ли) [2014, мультфильм, фантастика, фэнтези, боевик, приключения, WEB-DL 720p | LE-Production]

Nickolas3435

20 | 10

4.6 ГБ

В этой теме нет новых непрочитанных сообщений. Звездные войны: Повстанцы / Star Wars Rebels [S01] (Стюарт Ли, Дэйв Филони, Стивен Дж. Ли) [2014, Фантастика, мультсериал, приключения, WEB-DLRip | LostFilm]

Nickolas3435

621 | 187

3.98 ГБ

В этой теме нет новых непрочитанных сообщений. Звездные войны: Повстанцы / Star Wars Rebels [01x01-10 из 16] (Стюарт Ли, Дэйв Филони, Стивен Дж. Ли) [2014, Фантастика, мультсериал, приключения, WEB-DLRip | LostFilm]

Nickolas3435

58 | 21

2.93 ГБ

В этой теме нет новых непрочитанных сообщений. Звёздные войны: Пробуждение силы / Star Wars: Episode VII - The Force Awakens (фантастика, фэнтези, боевик, приключения, 2015) BDRip 720p от HELLYWOOD | Лицензия, P, A

marya111

56 | 16

7.95 ГБ

В этой теме нет новых непрочитанных сообщений. Звёздные войны: Пробуждение силы / Star Wars: The Force Awakens [Фантастика, фэнтези, боевик, приключения, 2015] HDRip, Dub [чистый звук]

salma3

534 | 15

1.46 ГБ

В этой теме нет новых непрочитанных сообщений. Звёздные войны: Пробуждение силы / Star Wars: Episode VII - The Force Awakens (фантастика, фэнтези, боевик, приключения, 2015) BDRip-AVC от HELLYWOOD | Лицензия

marya111

337 | 27

2.91 ГБ

В этой теме нет новых непрочитанных сообщений. Звёздные войны: Пробуждение силы / Star Wars: Episode VII - The Force Awakens [фантастика, фэнтези, боевик, приключения, 2015] BDRip 1080p, Dub [чистый звук]

salma3

1972 | 68

15.83 ГБ


Начать новую тему Ответить на тему  [ 1 сообщение ] 




Для Мосгорсуда, Роскомнадзора и рекламодателей:: mosgorsud-torrent[собачка]yandex.ru