Торрент файл
скачать торрент магнет ссылка Добавлен: 03 фев 2015, 11:14
Размер: 3.18 ГБ
Сидеров: 29
Личеров: 2
Автор

СообщениеДобавлено: 03 фев 2015, 11:13 

Не в сети
Зам. Админа
Аватара пользователя
Дата регистрации:
02 дек 2010, 12:39
Спасибо: 12461 / 214
Сообщения: 27968
Год выхода: 2014
Жанр: мультфильм, фантастика, комедия, семейный, боевик
Режиссер: Дон Холл, Крис Уильямс
В ролях: Даниил Рагин, Максим Сергеев, Аделина Червякова, Валерий Смекалов, Юлия Рудина

О фильме:
Юный Хиро Хамада — прирожденный изобретатель и гений конструирования роботов. Вместе со старшим братом Тадаши они воплощают в жизнь самые передовые идеи в Техническом университете города будущего Сан-Франсокио. После серии загадочных событий друзья оказываются в центре коварного заговора. Отчаявшись, Хиро решает использовать веселого и добродушного экспериментального робота Бэймакса, перепрограммировав его в неуязвимую боевую машину.



Качество: WEB-DLRip[720p]
Видео: AVC at 3862 Кбит/сек 1280 x 534 (2.397) at 23.976 fps
Аудио: AC-3 at 128 Кбит/сек 2 канала, 48,0 КГц Русский
Аудио: AC-3 at 384 Кбит/сек 6 каналов, 48,0 КГц Английский
Продолжительность: 01:41:53
Перевод: Дублированный[Чистый звук]

Общее
Уникальный идентификатор                 : 221272342509179569714219117577669679010 (0xA67780C6983A804DAE2269C5AE9397A2)
Полное имя                               : D:ФильмыGorod.Geroev.2014.D.WEB-DL.720p.mkv
Формат                                   : Matroska
Версия формата                           : Version 4 / Version 2
Размер файла                             : 3,18 Гбайт
Продолжительность                        : 1 ч. 41 м.
Общий поток                              : 4463 Кбит/сек
Дата кодирования                         : UTC 2015-02-03 05:21:16
Программа кодирования                    : mkvmerge v6.9.1 ('Blue Panther') 64bit built on Apr 18 2014 18:23:38
Библиотека кодирования                   : libebml v1.3.0 + libmatroska v1.4.1

Видео
Идентификатор                            : 1
Формат                                   : AVC
Формат/Информация                        : Advanced Video Codec
Профиль формата                          : Main@L3.1
Параметр CABAC формата                   : Нет
Параметр ReFrames формата                : 2 кадра
Идентификатор кодека                     : V_MPEG4/ISO/AVC
Продолжительность                        : 1 ч. 41 м.
Битрейт                                  : 3862 Кбит/сек
Ширина                                   : 1280 пикселей
Высота                                   : 534 пикселя
Соотношение сторон                       : 2,40:1
Режим частоты кадров                     : Постоянный
Частота кадров                           : 23,976 кадра/сек
Цветовое пространство                    : YUV
Субдискретизация насыщенности            : 4:2:0
Битовая глубина                          : 8 бит
Тип развёртки                            : Прогрессивная
Бит/(Пиксели*Кадры)                      : 0.236
Размер потока                            : 2,75 Гбайт (87%)
Язык                                     : English
Default                                  : Да
Forced                                   : Нет
Основные цвета                           : BT.709
Характеристики трансфера                 : BT.709
Коэффициенты матрицы                     : BT.709

Аудио #1
Идентификатор                            : 2
Формат                                   : AC-3
Формат/Информация                        : Audio Coding 3
Расширение режима                        : CM (complete main)
Параметр Endianness формата              : Big
Идентификатор кодека                     : A_AC3
Продолжительность                        : 1 ч. 41 м.
Вид битрейта                             : Постоянный
Битрейт                                  : 128 Кбит/сек
Каналы                                   : 2 канала
Расположение каналов                     : Front: L R
Частота                                  : 48,0 КГц
Битовая глубина                          : 16 бит
Метод сжатия                             : С потерями
Размер потока                            : 93,3 Мбайт (3%)
Язык                                     : Russian
Default                                  : Да
Forced                                   : Нет

Аудио #2
Идентификатор                            : 3
Формат                                   : AC-3
Формат/Информация                        : Audio Coding 3
Расширение режима                        : CM (complete main)
Параметр Endianness формата              : Big
Идентификатор кодека                     : A_AC3
Продолжительность                        : 1 ч. 41 м.
Вид битрейта                             : Постоянный
Битрейт                                  : 384 Кбит/сек
Каналы                                   : 6 каналов
Расположение каналов                     : Front: L C R, Side: L R, LFE
Частота                                  : 48,0 КГц
Битовая глубина                          : 16 бит
Метод сжатия                             : С потерями
Размер потока                            : 280 Мбайт (9%)
Язык                                     : English
Default                                  : Нет
Forced                                   : Нет

Меню
00:00:00.000                             : en:Hustle
00:07:16.000                             : en:Nerd School
00:14:38.000                             : en:Showcase
00:21:50.000                             : en:Tragedy
00:24:33.000                             : en:A New Friend
00:29:35.000                             : en:Being Helpful
00:36:59.000                             : en:Upgrade
00:44:19.000                             : en:The Chase
00:50:50.000                             : en:Fred's House
00:54:33.000                             : en:Training
01:00:45.000                             : en:Secret Lair
01:07:13.000                             : en:Big Reveal
01:11:55.000                             : enutting It All Together
01:16:27.000                             : en:Saves The Day!
01:24:45.000                             : en:The Portal
01:31:56.000                             : en:End Credits








реклама партнёра


Вернуться к началу
 Профиль  
 
   Похожие торренты   Автор   Торрент   Размер 
В этой теме нет новых непрочитанных сообщений. Город героев / Big Hero 6 (Дон Холл, Крис Уильямс) [мультфильм, фантастика, комедия, семейный, боевик, 2014] WEB-DLRip, dub [Чистый звук]

Dracon

276 | 3

1.37 ГБ

В этой теме нет новых непрочитанных сообщений. Город героев / Big Hero 6 (Дон Холл, Крис Уильямс) [мультфильм, фантастика, комедия, семейный, боевик, 2014] BDRip 720p, dub [Чистый звук]

Dracon

14 | 3

3.37 ГБ

В этой теме нет новых непрочитанных сообщений. Город героев / Big Hero 6 (Дон Холл, Крис Уильямс) [2014, мультфильм, фантастика, комедия, семейный, боевик, DVDScr] Чистый звук

Nickolas3435

9569 | 2487

1.37 ГБ

В этой теме нет новых непрочитанных сообщений. Город героев /  Big Hero 6 (Дон Холл, Крис Уильямс) [мультфильм, фантастика, комедия, семейный, боевик, 2014] HDRip, dub [Чистый звук]

Dracon

3 | 2

697.71 МБ

В этой теме нет новых непрочитанных сообщений. Город героев / Big Hero 6 (Дон Холл, Крис Уильямс) [мультфильм, фантастика, комедия, семейный, боевик, 2014] BDRip 720p, Dub+Sub [Лицензия] Avo

Dracon

2 | 5

7.93 ГБ

В этой теме нет новых непрочитанных сообщений. Город героев  / Big Hero 6 (Дон Холл, Крис Уильямс) [мультфильм, фантастика, комедия, семейный, боевик, 2014] BDRip 720p, Dub [iTunes] Avo+Sub

Dracon

15 | 5

3.76 ГБ

В этой теме нет новых непрочитанных сообщений. Город героев / Big Hero 6 (Дон Холл, Крис Уильямс) [мультфильм, фантастика, комедия, семейный, боевик, 2014] HDRip, Dub [Лицензия]

Dracon

158 | 5

2.18 ГБ


Начать новую тему Ответить на тему  [ 1 сообщение ] 




Для Мосгорсуда, Роскомнадзора и рекламодателей:: mosgorsud-torrent[собачка]yandex.ru