Торрент файл
скачать торрент магнет ссылка Добавлен: 02 фев 2015, 21:18
Размер: 3.62 ГБ
Сидеров: 3
Личеров: 4
Автор

СообщениеДобавлено: 02 фев 2015, 21:18 

Не в сети
Зам. Админа
Аватара пользователя
Дата регистрации:
02 дек 2010, 12:39
Спасибо: 12623 / 214
Сообщения: 28012
Год выхода: 2014
Жанр: мультфильм, фэнтези, боевик, приключения
Режиссер: Ган Хо Джанг
В ролях: Анна Торв, Томас Джейн, Альфред Молина

О фильме:
Полнометражный мультфильм по известной игре Heavenly Sword. Тысячи лет прошло с тех времен, когда злостный король по имени Ворон захватил практически всю земли и вскоре должна была покрылся во тьму и ужас для простых людей. Но против него выступил небесный посланник, дабы прекратить эту несправедливость. В жестоком бою он смог одолеть ужасного царя и мир снова стал светлым и спокойным. В результате этого боя, в месте сражения появился небесный меч, который обладает огромной силой. Тот, кто обладает им, может изменить все на своем пути – либо ввести в процветание, либо вовсе его разрушить…

СЭМПЛ

Качество: WEB-DLRip[1080p]
Видео: MPEG-4 / AVC, 1916x1076 (16:9), 23.976 fps ~ 5040 Kbps
Аудио:
AC3, 48 KHz 6 ch ~ 448 Kb/s (русский)
AC3, 48 KHz 6 ch ~ 384 Kb/s (английский)
Продолжительность: 01:26:00
Перевод: Любительский (одноголосый) [PashaUp]
Субтитры: английские, русские, английские отдельно
Перевод на русский: Lakfakalle-Team
Переводчик: Летописец Абх
Общее
Уникальный идентификатор : 242752789298330578092991748323020379032 (0xB6A07C91C5DD2617B901E5D80B681398)
Полное имя : Q:TorFHeavenly.Sword.2014.WEB-DL.DD5.1.H264Heavenly.Sword.2014.WEB-DL.DD5.1.H264.mkv
Формат : Matroska
Версия формата : Version 2
Размер файла : 3,62 Гбайт
Продолжительность : 1 ч. 26 м.
Общий поток : 5986 Кбит/сек
Дата кодирования : UTC 2015-02-02 14:07:46
Программа кодирования : mkvmerge v5.4.0 ('Piper') built on Mar 10 2012 13:34:39
Библиотека кодирования : libebml v1.2.3 + libmatroska v1.3.0
Attachment : Yes / Yes / Yes / Yes

Видео
Идентификатор : 1
Формат : AVC
Формат/Информация : Advanced Video Codec
Профиль формата : High@L4.0
Параметр CABAC формата : Да
Параметр ReFrames формата : 4 кадра
Режим смешивания : Header stripping
Идентификатор кодека : V_MPEG4/ISO/AVC
Продолжительность : 1 ч. 26 м.
Битрейт : 5034 Кбит/сек
Ширина : 1916 пикселей
Высота : 1076 пикселей
Соотношение сторон : 16:9
Частота кадров : 23,976 кадра/сек
Цветовое пространство : YUV
Субдискретизация насыщенности : 4:2:0
Битовая глубина : 8 бит
Тип развёртки : Прогрессивная
Бит/(Пиксели*Кадры) : 0.102
Размер потока : 3,04 Гбайт (84%)
Заголовок : Heavenly.Sword.2014.WEB-DL.DD5.1.H264-RARBG
Язык : English
Default : Да
Forced : Нет
Основные цвета : BT.709-5, BT.1361, IEC 61966-2-4, SMPTE RP177
Характеристики трансфера : BT.709-5, BT.1361
Коэффициенты матрицы : BT.709-5, BT.1361, IEC 61966-2-4 709, SMPTE RP177

Аудио #1
Идентификатор : 2
Формат : AC-3
Формат/Информация : Audio Coding 3
Расширение режима : CM (complete main)
Режим смешивания : Header stripping
Идентификатор кодека : A_AC3
Продолжительность : 1 ч. 26 м.
Вид битрейта : Постоянный
Битрейт : 448 Кбит/сек
Каналы : 6 каналов
Расположение каналов : Front: L C R, Side: L R, LFE
Частота : 48,0 КГц
Битовая глубина : 16 бит
Метод сжатия : С потерями
Размер потока : 277 Мбайт (7%)
Заголовок : PashaUp
Язык : Russian
Default : Да
Forced : Нет

Аудио #2
Идентификатор : 3
Формат : AC-3
Формат/Информация : Audio Coding 3
Расширение режима : CM (complete main)
Режим смешивания : Header stripping
Идентификатор кодека : A_AC3
Продолжительность : 1 ч. 26 м.
Вид битрейта : Постоянный
Битрейт : 384 Кбит/сек
Каналы : 6 каналов
Расположение каналов : Front: L C R, Side: L R, LFE
Частота : 48,0 КГц
Битовая глубина : 16 бит
Метод сжатия : С потерями
Размер потока : 238 Мбайт (6%)
Заголовок : Heavenly.Sword.2014.WEB-DL.DD5.1.H264-RARBG
Язык : English
Default : Нет
Forced : Нет

Текст
Идентификатор : 4
Формат : UTF-8
Идентификатор кодека : S_TEXT/UTF8
Идентификатор кодека/Информация : UTF-8 Plain Text
Язык : English
Default : Да
Forced : Нет

Меню
00:00:00.000 : en:Legend of the Sword
00:10:25.000 : en:King Bohan Attacks
00:20:21.000 : en:Search for Chosen One
00:33:43.000 : en:Father’s Sins
00:45:04.000 : en:Battle for the Sword
01:00:05.000 : en:Fighting for Kai
01:13:21.000 : en:Hell Beckons
01:21:34.000 : en:Credits














реклама партнёра


Вернуться к началу
 Профиль  
 
   Похожие торренты   Автор   Торрент   Размер 
В этой теме нет новых непрочитанных сообщений. Небесный меч / Heavenly Sword (Ган Хо Джанг) [2014, мультфильм, фэнтези, боевик, приключения, WEB-DLRip 720p]

Nickolas3435

367 | 36

2.91 ГБ

В этой теме нет новых непрочитанных сообщений. Небесный меч / Heavenly Sword (Ган Хо Джанг) [мультфильм, фэнтези, боевик, приключения, 2014] HDRip, avo

Dracon

12 | 2

1.36 ГБ

В этой теме нет новых непрочитанных сообщений. Небесный меч / Heavenly Sword (Ган Хо Джанг) [мультфильм, фэнтези, боевик, приключения, 2014] HDRip, dvo

Dracon

1 | 1

1.37 ГБ

В этой теме нет новых непрочитанных сообщений. Крадущийся тигр, затаившийся дракон: Меч судьбы / Crouching Tiger, Hidden Dragon: Sword of Destiny [Фэнтези, Боевик, Драма, Приключения, 2016] WEB-DLRip 1080p, Mvo+Sub

salma3

0 | 0

6.43 ГБ

В этой теме нет новых непрочитанных сообщений. Три богатыря: Ход конем (Константин Феоктистов) [мультфильм, комедия, приключения, фэнтези, 2014] WEB-DLRip 1080p

Dracon

60 | 2

2.7 ГБ

В этой теме нет новых непрочитанных сообщений. Снежная королева 2: Перезаморозка (Алексей Цицилин) [мультфильм, фэнтези, приключения, семейный, 2014] WEB-DLRip 1080p

Dracon

29 | 5

2.58 ГБ

В этой теме нет новых непрочитанных сообщений. Крадущийся тигр, затаившийся дракон: Меч судьбы / Crouching Tiger, Hidden Dragon: Sword of Destiny [фэнтези, боевик, драма, приключения, 2016] WEB-DLRip-AVC, Mvo

salma3

1746 | 221

1.33 ГБ


Начать новую тему Ответить на тему  [ 1 сообщение ] 




Для Мосгорсуда, Роскомнадзора и рекламодателей:: mosgorsud-torrent[собачка]yandex.ru