Торрент файл
скачать торрент магнет ссылка Добавлен: 07 янв 2015, 00:40
Размер: 744.82 МБ
Сидеров: 529
Личеров: 34
Автор

СообщениеДобавлено: 07 янв 2015, 00:40 

Не в сети
Супермодератор
Аватара пользователя
Дата регистрации:
06 июн 2014, 07:51
Спасибо: 576 / 0
Сообщения: 2002
Информация о фильме
Оригинальное название: Бабай
Год выпуска: 2013
Жанр: Мультфильм, приключения, комедия, фэнтези, семейный
Выпущено: Украина, УкрАнимаФильм
Режиссер: Марина Медведь
В ролях: Рада Белова, Ирма Витовская, Остап Ступка, Олеся Чичельницкая, Катерина Бутская, Андрей Федюнчиков, Евгений Пашин, Ольга Радчук, Алена Блинникова, Мирослав Кувалдин

О фильме: Что будет, если в мире появится волшебное яйцо, исполняющее одно, но самое заветное желание? А что, если охоту за ним начнут герои детских страшилок — Ведьма с Чертом, Вий и главный злодей и кошмар всех детских снов Бабай со своей армией страхов… Страшно представить ради исполнения каких сокровенных желаний силы тьмы восстали против друг друга, и что будет с теми, кто случайно окажется у них на пути…



Файл
Качество: WEB-DLRip (AVC)
Видео: MPEG-4 AVC, 1356 Кбит/с, 720x388, 25 кадр/с
Аудио: AC3, 2 ch, 192 Кбит/с
Размер: 745 МБ
Продолжительность: 01:07:11
Язык: Русский
Семпл

Общее
Уникальный идентификатор : 219669439543123184334756848288037556712 (0xA542CB8ED68CEA57ABC09200A7CF51E8)
Полное имя : D:ВидеоBabay.2014.WEB-DLRip-AVC by Vovan366(ExKinoRay).mkv
Формат : Matroska
Версия формата : Version 4 / Version 2
Размер файла : 745 Мбайт
Продолжительность : 1 ч. 7 м.
Общий поток : 1550 Кбит/сек
Название фильма : Babay.2014.WEB-DLRip-AVC by Vovan366(ExKinoRay)
Дата кодирования : UTC 2015-01-04 15:30:16
Программа кодирования : mkvmerge v7.1.0 ('Good Love') 64bit built on Jul 27 2014 13:06:55
Библиотека кодирования : libebml v1.3.0 + libmatroska v1.4.1
DURATION : 01:07:11.809000000
NUMBER_OF_FRAMES : 115757
NUMBER_OF_BYTES : 96763396
_STATISTICS_WRITING_APP : mkvmerge v7.1.0 ('Good Love') 64bit built on Jul 27 2014 13:06:55
_STATISTICS_WRITING_DATE_UTC : 2015-01-04 15:30:16
_STATISTICS_TAGS : BPS DURATION NUMBER_OF_FRAMES NUMBER_OF_BYTES
Видео
Идентификатор : 1
Формат : AVC
Формат/Информация : Advanced Video Codec
Профиль формата : High@L4.1
Параметр CABAC формата : Да
Параметр ReFrames формата : 6 кадров
Идентификатор кодека : V_MPEG4/ISO/AVC
Продолжительность : 1 ч. 7 м.
Битрейт : 1356 Кбит/сек
Ширина : 720 пикселей
Высота : 388 пикселей
Соотношение сторон : 1,85:1
Режим частоты кадров : Постоянный
Частота кадров : 25,000 кадров/сек
Цветовое пространство : YUV
Субдискретизация насыщенности : 4:2:0
Битовая глубина : 8 бит
Тип развёртки : Прогрессивная
Бит/(Пиксели*Кадры) : 0.194
Размер потока : 638 Мбайт (86%)
Заголовок : by Vovan366(ExKinoRay)
Библиотека кодирования : x264 core 130 r2273 b3065e6
Настройки программы : cabac=1 / ref=6 / deblock=1:-3:-3 / analyse=0x3:0x113 / me=umh / subme=10 / psy=1 / psy_rd=1.00:0.15 / mixed_ref=1 / me_range=32 / chroma_me=1 / trellis=2 / 8x8dct=1 / cqm=0 / deadzone=21,11 / fast_pskip=1 / chroma_qp_offset=-3 / threads=6 / lookahead_threads=1 / sliced_threads=0 / nr=0 / decimate=0 / interlaced=0 / bluray_compat=0 / constrained_intra=0 / bframes=6 / b_pyramid=2 / b_adapt=2 / b_bias=0 / direct=3 / weightb=1 / open_gop=0 / weightp=2 / keyint=250 / keyint_min=25 / scenecut=40 / intra_refresh=0 / rc=2pass / mbtree=0 / bitrate=1356 / ratetol=1.0 / qcomp=0.60 / qpmin=0 / qpmax=69 / qpstep=4 / cplxblur=20.0 / qblur=0.5 / ip_ratio=1.40 / pb_ratio=1.30 / aq=1:1.00
Default : Да
Forced : Нет
Аудио
Идентификатор : 2
Формат : AC-3
Формат/Информация : Audio Coding 3
Расширение режима : CM (complete main)
Параметр Endianness формата : Big
Идентификатор кодека : A_AC3
Продолжительность : 1 ч. 7 м.
Вид битрейта : Постоянный
Битрейт : 192 Кбит/сек
Каналы : 2 канала
Расположение каналов : Front: L R
Частота : 44,1 КГц
Битовая глубина : 16 бит
Метод сжатия : С потерями
Размер потока : 92,3 Мбайт (12%)
Язык : Russian
Default : Да
Forced : Нет




реклама партнёра


Вернуться к началу
 Профиль Отправить личное сообщение  
 
   Похожие торренты   Автор   Торрент   Размер 
В этой теме нет новых непрочитанных сообщений. Маша и Медведь. Пещерный медведь [48] [Мультсериал, сказка, детский, семейный. 2014] WEBRip

Dracon

116 | 5

97.91 МБ

В этой теме нет новых непрочитанных сообщений. Маша и медведь: Нынче всё наоборот [38] [Мультсериал, комедия. 2013] WEB-DLRip 720p

Dracon

72 | 3

138.69 МБ

В этой теме нет новых непрочитанных сообщений. Маша и медведь: До новых встреч! [52] (Мультсериал, 2015) WEB-DLRip-AVC

Aleksandr.ru

3373 | 95

128.1 МБ

В этой теме нет новых непрочитанных сообщений. Маша и Медведь. Раз в году [44] [Мультсериал, сказка, детский, семейный. 2014] WEB-DLRip

Dracon

29 | 3

107.25 МБ

В этой теме нет новых непрочитанных сообщений. Марина трахается [2013 г., Amateur, CamRip]

Dievas

166 | 6

109.16 МБ

В этой теме нет новых непрочитанных сообщений. Маша и Медведь. Учитель танцев [46] [Мультсериал, сказка, детский, семейный. 2014] WEB-DLRip

Dracon

1559 | 32

108.86 МБ

В этой теме нет новых непрочитанных сообщений. Маша и медведь: Крик победы [47] [Мультсериал, сказка, детский, семейный. 2014] WEB-DLRip

Dracon

74 | 3

281.49 МБ


Начать новую тему Ответить на тему  [ 1 сообщение ] 




Для Мосгорсуда, Роскомнадзора и рекламодателей:: mosgorsud-torrent[собачка]yandex.ru