Торрент файл
скачать торрент магнет ссылка Добавлен: 05 янв 2015, 08:02
Размер: 2.65 ГБ
Сидеров: 665
Личеров: 1943
Автор

СообщениеДобавлено: 05 янв 2015, 08:02 

Не в сети
Супермодератор
Аватара пользователя
Дата регистрации:
06 июн 2014, 07:51
Спасибо: 577 / 0
Сообщения: 2002
Информация о фильме
Название: Масс Эффект
Оригинальное название: Mass Effect
Год выхода: 2014
Жанр: Фантастика, боевик
Режиссер: Кейси Хадсон
В ролях: Джон Шепард,Эшли Уильямс,Кайден Аленко,Лиара Т'Сони,Урднот Рекс,Тали’Зора Нар Райа,Гаррус Вакариан,Девид Андерсон, Сарен Артериус,

О фильме:
Действие игры разворачивается в конце XXII века, в 2183 году. Капитан Шепард — главный герой игры — отправляется на задание, целью которого является доставить артефакт древней цивилизации Протеан, найденный археологами на одной из человеческих колоний. Во время выполнения задания, область археологических раскопок подвергается атаке гетов — искусственной расы — которые также пытаются захватить артефакт. Предотвратив разрушение колонии, Шепард находит артефакт. Данный артефакт показывает Шепарду некое видение апокалиптического характера, смысл которого ему предстоит разгадать. Коммандер отправляется на Цитадель, поскольку выясняется, что к атаке на колонию причастен один из СПЕКТРов — агентов Совета Цитадели — Сарен Артериус. В итоге Шепард становится первым человеком, принятым в СПЕКТР и получает задание нейтрализовать Сарена. В ходе дальнейшего расследования Шепард выясняет, что Сарену каким-то образом удалось заключить союз с гетами и с их помощью он желает вернуть древнюю расу, называемую Жнецами, которая, как выясняется, периодически уничтожает разумную жизнь в Галактике. Шепарду предстоит предотвратить или хотя бы отсрочить их возвращение.

Страна: США,Канада
Студия: BioWare
Продолжительность: ~ 29-38 мин. серия
Перевод: Дублированный

Файл
Кодек: MPEG4
Качество: WEB-DL 720p
Видео: AVC, 1359 Кбит/сек, 1280x542 (2,35:1), 29,970 кадров/сек
Звук: AAC LC, 192 Кбит/сек, 2 канала, 44,1 КГц
Субтитры: Отсутствуют

Общее
Полное имя : E:ЗагрузкиMass Effect 01x05 + trailer#1.mp4
Формат : MPEG-4
Профиль формата : Base Media / Version 2
Идентификатор кодека : mp42
Размер файла : 323 Мбайт
Продолжительность : 29 м.
Режим общего битрейта : Переменный
Общий поток : 1554 Кбит/сек
Дата кодирования : UTC 2014-07-05 18:06:56
Дата пометки : UTC 2014-07-05 18:06:56
gsst : 0
gstd : 1742123
gssd : B4A7DDA27MH1419192074906048
gshh : r7---sn-4g57kuel.googlevideo.com
Видео
Идентификатор : 1
Формат : AVC
Формат/Информация : Advanced Video Codec
Профиль формата : High@L3.1
Параметр CABAC формата : Да
Параметр ReFrames формата : 1 кадр
Идентификатор кодека : avc1
Идентификатор кодека/Информация : Advanced Video Coding
Продолжительность : 29 м.
Битрейт : 1359 Кбит/сек
Максимальный битрейт : 5309 Кбит/сек
Ширина : 1280 пикселей
Высота : 542 пикселя
Соотношение сторон : 2,35:1
Режим частоты кадров : Постоянный
Частота кадров : 29,970 кадров/сек
Цветовое пространство : YUV
Субдискретизация насыщенности : 4:2:0
Битовая глубина : 8 бит
Тип развёртки : Прогрессивная
Бит/(Пиксели*Кадры) : 0.065
Размер потока : 282 Мбайт (87%)
Дата пометки : UTC 2014-07-05 18:08:04
Аудио
Идентификатор : 2
Формат : AAC
Формат/Информация : Advanced Audio Codec
Профиль формата : LC
Идентификатор кодека : 40
Продолжительность : 29 м.
Вид битрейта : Переменный
Битрейт : 192 Кбит/сек
Максимальный битрейт : 201 Кбит/сек
Каналы : 2 канала
Расположение каналов : Front: L R
Частота : 44,1 КГц
Метод сжатия : С потерями
Размер потока : 39,9 Мбайт (12%)
Заголовок : IsoMedia File Produced by Google, 5-11-2011
Дата кодирования : UTC 2014-07-05 18:07:38
Дата пометки : UTC 2014-07-05 18:08:04




реклама партнёра


Вернуться к началу
 Профиль Отправить личное сообщение  
 
   Похожие торренты   Автор   Торрент   Размер 
В этой теме нет новых непрочитанных сообщений. Масс Эффект / Mass Effect [01x01-05 из 6] (Кейси Хадсон) [2014, Фантастика, боевик, WEB-DL 720p]

Nickolas3435

876 | 146

2.24 ГБ

В этой теме нет новых непрочитанных сообщений. Эффект Скопии / The Scopia Effect (Кристофер Батлер ) [ужасы, фантастика, триллер, 2014] WEB-DL 720p, mvo

Dracon

397 | 24

3.63 ГБ

В этой теме нет новых непрочитанных сообщений. Эффект Скопии / The Scopia Effect (Кристофер Батлер ) [ужасы, фантастика, триллер, 2014] WEB-DLRip, mvo

Dracon

902 | 31

1.38 ГБ

В этой теме нет новых непрочитанных сообщений. Эффект Лазаря / The Lazarus Effect (Дэвид Гелб) [Ужасы, триллер, 2015] BDRip 720p, Dub+Sub [iTunes]

Dracon

1315 | 85

3.11 ГБ

В этой теме нет новых непрочитанных сообщений. Эффект Лазаря / The Lazarus Effect (Дэвид Гелб) [Ужасы, триллер, 2015] WEBRip 720p, dub [Звук с CAMRip]

Dracon

1324 | 12

1.21 ГБ

В этой теме нет новых непрочитанных сообщений. Эффект Лазаря / The Lazarus Effect (Дэвид Гелб) [Ужасы, триллер, 2015] WEBRip 720p, dub [Чистый звук]

Dracon

0 | 0

2.09 ГБ

В этой теме нет новых непрочитанных сообщений. Флэш / The Flash [01x01-23 из 23] (Дэвид Наттер) [2014, фантастика, боевик, Приключения, драма, сериалы, WEB-DL 720p | BaibaKo]

Dracon

7 | 12

33.13 ГБ


Начать новую тему Ответить на тему  [ 1 сообщение ] 




Для Мосгорсуда, Роскомнадзора и рекламодателей:: mosgorsud-torrent[собачка]yandex.ru