Торрент файл
скачать торрент магнет ссылка Добавлен: 28 дек 2014, 19:08
Размер: 11.05 ГБ
Сидеров: 6
Личеров: 3
Автор

СообщениеДобавлено: 28 дек 2014, 19:09 

Не в сети
Аватара пользователя
Дата регистрации:
09 авг 2014, 12:07
Спасибо: 61 / 1
Сообщения: 220
Откуда: КРАСНОГОРСК
Как приручить дракона:Коллекция / HOW TO TRAIN YOUR DRAGON:COLLECTION



Год выпуска:: 2010- 2014
Выпущено: США, DreamWorks Animation, Mad Hatter Entertainment
Жанр: Мультфильм, фэнтези, комедия, приключения, семейный
Продолжительность: 2x~01:37:53
Озвучка :Дубляж, Лицензия
Субтитры: Русские,Украинские,Английские



Режиссер:Дин ДеБлуа, Крис Сандерс

В ролях: Джей Барушель, Джона Хилл, Кейт Бланшетт, Джерард Батлер, Джимон Хонсу, Кристофер Минц-Плассе, Кристен Уиг, Кит Харингтон, Америка Феррера, ТиДжей Миллер, Крэйг Фергюсон

] Как приручить дракона:Фильм снят по мотивам одноименной книги Крессиды Коуэлл. Вы узнаете историю подростка Иккинга, которому не слишком близки традиции его героического племени, много лет ведущего войну с драконами. Мир Иккинга переворачивается с ног на голову, когда он неожиданно встречает дракона Беззубика, который поможет ему и другим викингам увидеть привычный мир с совершенно другой стороны...
Как приручить дракона 2а:С момента примирения викингов и драконов прошло пять лет. Пока Астрид, Сморкала и остальные ребята проводят время соревнуясь друг с другом в популярных на острове драконьих гонках, Иккинг и Беззубик путешествуют по небу, составляя карту неизвестных мест. Когда одно из их приключений приводит к открытию тайной ледяной пещеры, которая является домом для сотен ранее невиданных диких драконов и таинственного драконьего всадника, два друга оказываются в центре битвы за защиту мира.





Качество : ВDRip-AVC 1080p
Формат: MPEG-4
Кодек: H264
Видео: 7299Кбит/сек,1920х1080(16.9),в 25.000кадр/сек,AVC(Baseline@L4.0)(1Ref Frames)
Кодек: AAC
Аудио Russian Dolby Digital 5.1:495Кбит/сек,48.0КГц,6каналов,AAC,(Version4)(LC)

Звуковая дорожка сделана путем наложения чистого голоса озвучивателей на центральный канал оригинальной дорожки. Качество идентично звуковой дорожке.


General
Полное имя : D:\М У Л Ь Т Ф И Л Ь М Ы\Как приручить дракона Коллекция\HOW_TO_TRAIN_YOUR_DRAGON_ COLLECTION_2010_-_2014_RUS_DD5.1_x264_Nikolai.Baranov_ВDRip-AVC_(1080p)\HOW_TO_TRAIN_YOUR_DRAGON_2010_RUS_DD5.1_x264_Nikolai.Baranov_ВDRip-AVC_(1080p).mp4
Формат : MPEG-4
Профиль формата : Base Media
Идентификатор кодека : isom
Размер файла : 5.33 GiB
Продолжительность : 1h 37mn
Режим общего битрейта : Variable
Общий поток : 7 799 Kbps
Дата кодирования : UTC 2014-12-27 22:30:24
Дата пометки : UTC 2014-12-27 22:30:24
Программа кодирования : Lavf51.12.1

Video
Идентификатор : 1
Формат : AVC
Формат/Информация : Advanced Video Codec
Профиль формата : Baseline@L4.0
Параметр CABAC формата : No
Параметр ReFrames формата : 1 frame
Параметр GOP формата : M=1, N=12
Идентификатор кодека : avc1
Идентификатор кодека/Информация : Advanced Video Coding
Продолжительность : 1h 37mn
Вид битрейта : Variable
Битрейт : 7 300 Kbps
Максимальный битрейт : 10.5 Mbps
Ширина : 1 920 pixels
Высота : 1 080 pixels
Соотношение сторон : 16:9
Режим частоты кадров : Constant
Частота кадров : 25.000 fps
Частота кадров в оригинале : 24.000 fps
Цветовое пространство : YUV
Субдискретизация насыщенности : 4:2:0
Битовая глубина : 8 bits
Тип развёртки : Progressive
Бит/(Пиксели*Кадры) : 0.141
Размер потока : 4.99 GiB (94%)
Язык : English
Дата кодирования : UTC 2014-12-27 22:30:24
Дата пометки : UTC 2014-12-27 22:30:24

Audio
Идентификатор : 2
Формат : AAC
Формат/Информация : Advanced Audio Codec
Профиль формата : LC
Идентификатор кодека : 40
Продолжительность : 1h 37mn
Вид битрейта : Variable
Битрейт : 493 Kbps
Каналы : 6 channels
Расположение каналов : Front: L C R, Side: L R, LFE
Частота : 48.0 KHz
Метод сжатия : Lossy
Размер потока : 345 MiB (6%)
Язык : Russian
Дата кодирования : UTC 2014-12-27 22:30:24
Дата пометки : UTC 2014-12-27 22:30:24


General
Полное имя : D:\М У Л Ь Т Ф И Л Ь М Ы\Как приручить дракона Коллекция\HOW_TO_TRAIN_YOUR_DRAGON_ COLLECTION_2010_-_2014_RUS_DD5.1_x264_Nikolai.Baranov_ВDRip-AVC_(1080p)\HOW_TO_TRAIN_YOUR_DRAGON_2_2014_RUS_DD5.1_x264_Nikolai.Baranov_ВDRip-AVC_(1080p).mp4
Формат : MPEG-4
Профиль формата : Base Media
Идентификатор кодека : isom
Размер файла : 5.55 GiB
Продолжительность : 1h 41mn
Режим общего битрейта : Variable
Общий поток : 7 800 Kbps
Дата кодирования : UTC 2014-12-27 22:30:23
Дата пометки : UTC 2014-12-27 22:30:23
Программа кодирования : Lavf51.12.1

Video
Идентификатор : 1
Формат : AVC
Формат/Информация : Advanced Video Codec
Профиль формата : Baseline@L4.0
Параметр CABAC формата : No
Параметр ReFrames формата : 1 frame
Параметр GOP формата : M=1, N=12
Идентификатор кодека : avc1
Идентификатор кодека/Информация : Advanced Video Coding
Продолжительность : 1h 41mn
Вид битрейта : Variable
Битрейт : 7 299 Kbps
Максимальный битрейт : 10.5 Mbps
Ширина : 1 920 pixels
Высота : 1 080 pixels
Соотношение сторон : 16:9
Режим частоты кадров : Constant
Частота кадров : 25.000 fps
Частота кадров в оригинале : 24.000 fps
Цветовое пространство : YUV
Субдискретизация насыщенности : 4:2:0
Битовая глубина : 8 bits
Тип развёртки : Progressive
Бит/(Пиксели*Кадры) : 0.141
Размер потока : 5.20 GiB (94%)
Язык : English
Дата кодирования : UTC 2014-12-27 22:30:23
Дата пометки : UTC 2014-12-27 22:30:23

Audio
Идентификатор : 2
Формат : AAC
Формат/Информация : Advanced Audio Codec
Профиль формата : LC
Идентификатор кодека : 40
Продолжительность : 1h 41mn
Вид битрейта : Variable
Битрейт : 495 Kbps
Каналы : 6 channels
Расположение каналов : Front: L C R, Side: L R, LFE
Частота : 48.0 KHz
Метод сжатия : Lossy
Размер потока : 361 MiB (6%)
Язык : Russian
Дата кодирования : UTC 2014-12-27 22:30:23
Дата пометки : UTC 2014-12-27 22:30:23












Как приручить дракона

Как приручить дракона 2





Релиз от: Nikolai.Baranov







_________________

Легко быть оптимистом, когда судьба не валит с ног тяжелыми ударами, а лишь иногда легонько шлепает по заднице.



реклама партнёра


Вернуться к началу
 Профиль Отправить личное сообщение  
 
   Похожие торренты   Автор   Торрент   Размер 
В этой теме нет новых непрочитанных сообщений. Феи: Коллекция / Tinker Bell: Collection (Брэдли Рэймонд, Роберт Ганнавей, Пегги Холмс) [2008-2014, Мультфильм, фэнтези, приключения, семейный, детский, полнометражный, BDRip | Лицензия]

Nickolas3435

271 | 82

8.66 ГБ

В этой теме нет новых непрочитанных сообщений. Гнездо дракона / Dragon Nest: Warriors' Dawn (Юэфэн Сун) [фэнтези, приключения, семейный, 2014] BDRip 1080p, Dub [3D-Video | BD Rus]

Dracon

355 | 21

7.56 ГБ

В этой теме нет новых непрочитанных сообщений. Хоббит: Коллекция / The Hobbit: Collection (Питер Джексон) [2012-2014 , Фэнтези, приключения, экранизация , BluRay 1080p] [DD5.1] [ Subs Rus,Ukr,ENG] [ Лицензия]

marya111

0 | 0

69.09 ГБ

В этой теме нет новых непрочитанных сообщений. Гнездо дракона / Dragon Nest: Warriors' Dawn (Юэфэн Сун) [фэнтези, приключения, семейный, 2014] WEB-DLRip, dub [Чистый звук]

Dracon

7 | 1

1.37 ГБ

В этой теме нет новых непрочитанных сообщений. Гнездо дракона / Dragon Nest: Warriors' Dawn (Юэфэн Сун) [фэнтези, приключения, семейный, 2014] WEB-DL 720p, dub [Чистый звук]

Dracon

7 | 2

2.8 ГБ

В этой теме нет новых непрочитанных сообщений. Гнездо дракона / Dragon Nest: Warriors' Dawn (Юэфэн Сун) [фэнтези, приключения, семейный, 2014] WEBRip, dub [Чистый звук]

Dracon

26 | 3

1.37 ГБ

В этой теме нет новых непрочитанных сообщений. Гнездо дракона / Dragon Nest: Warriors' Dawn (Юэфэн Сун) [фэнтези, приключения, семейный, 2014] WEBRip 720p, dub [Чистый звук]

Dracon

139 | 2

1.84 ГБ


Начать новую тему Ответить на тему  [ 1 сообщение ] 




Для Мосгорсуда, Роскомнадзора и рекламодателей:: mosgorsud-torrent[собачка]yandex.ru