Торрент файл
скачать торрент магнет ссылка Добавлен: 26 дек 2014, 00:40
Размер: 7.63 ГБ
Сидеров: 380
Личеров: 21
Автор

СообщениеДобавлено: 26 дек 2014, 00:40 

Не в сети
Супермодератор
Аватара пользователя
Дата регистрации:
06 июн 2014, 07:51
Спасибо: 576 / 0
Сообщения: 2002
Информация о фильме
Название: Семейка монстров
Оригинальное название: The Boxtrolls
Год выхода: 2014
Жанр: Комедия, мультфильм, приключения, семейный
Режиссер: Грэхэм Эннэйбл, Энтони Стакки
В ролях: Бен Кингсли, Джаред Харрис, Ник Фрост, Ричард Айоади, Трэйси Морган, Ди Брэдли Бэйкер, Стивен Блум, Ника Футтерман

О фильме: Ему не повезло родиться в роскошном замке. Вместе с семейкой забавных монстров юноша поселился прямо под мостовой. Изысканные костюмы ему заменила обычная коробка. Зато каждую ночь он мог разгуливать по темным улицам в поисках новых приключений. Но однажды он встретил очаровательную девчушку из высшего общества — и мир вокруг изменился навсегда.



Страна: США / Laika Entertainment
Продолжительность: 01:36:09
Перевод: Профессиональный (полное дублирование) - iTunes

Файл
Качество: BDRip 1080p
Формат: MKV
Видео: MPEG4/AVC, 10.3 Мбит/сек, 1920х1080 (16:9), 23.976 кадра/сек
Аудио 1: AC3, 6 каналов, 384 Кбит/сек | Русский
Аудио 2: AC3, 6 каналов, 640 Кбит/сек | Английский
Субтитры: Английские (Full, SDH, SDH-Colored)
Навигация по главам: Есть

Общее
Уникальный идентификатор : 248914324874567314462174999783230110153 (0xBB4327BA49D7ECBBBBCA8637F8EB79C9)
Полное имя : The Boxtrolls. (2014) BDRip 1080p.mkv
Формат : Matroska
Версия формата : Version 2
Размер файла : 7,63 Гбайт
Продолжительность : 1 ч. 36 м.
Общий поток : 11,4 Мбит/сек
Название фильма : The Boxtrolls. 2014
Дата кодирования : UTC 2014-12-24 14:51:59
Программа кодирования : mkvmerge v5.8.0 ('No Sleep / Pillow') built on Sep 2 2012 15:37:04
Библиотека кодирования : libebml v1.2.3 + libmatroska v1.3.0
Видео
Идентификатор : 1
Формат : AVC
Формат/Информация : Advanced Video Codec
Профиль формата : High@L4.1
Параметр CABAC формата : Да
Параметр ReFrames формата : 4 кадра
Идентификатор кодека : V_MPEG4/ISO/AVC
Продолжительность : 1 ч. 36 м.
Битрейт : 10,3 Мбит/сек
Ширина : 1920 пикселей
Высота : 1080 пикселей
Соотношение сторон : 16:9
Режим частоты кадров : Постоянный
Частота кадров : 23,976 кадра/сек
Цветовое пространство : YUV
Субдискретизация насыщенности : 4:2:0
Битовая глубина : 8 бит
Тип развёртки : Прогрессивная
Бит/(Пиксели*Кадры) : 0.208
Размер потока : 6,79 Гбайт (89%)
Заголовок : CHD
Библиотека кодирования : x264 core 142 r2491 24e4fed
Настройки программы : cabac=1 / ref=4 / deblock=1:-3:-3 / analyse=0x3:0x113 / me=umh / subme=10 / psy=1 / psy_rd=1.00:0.05 / mixed_ref=1 / me_range=32 / chroma_me=1 / trellis=2 / 8x8dct=1 / cqm=0 / deadzone=21,11 / fast_pskip=0 / chroma_qp_offset=-2 / threads=18 / lookahead_threads=1 / sliced_threads=0 / nr=0 / decimate=1 / interlaced=0 / bluray_compat=0 / constrained_intra=0 / bframes=5 / b_pyramid=2 / b_adapt=2 / b_bias=0 / direct=3 / weightb=1 / open_gop=0 / weightp=2 / keyint=250 / keyint_min=23 / scenecut=40 / intra_refresh=0 / rc=2pass / mbtree=0 / bitrate=10330 / ratetol=1.0 / qcomp=0.70 / qpmin=0 / qpmax=69 / qpstep=4 / cplxblur=20.0 / qblur=0.5 / ip_ratio=1.40 / pb_ratio=1.30 / aq=2:1.00
Язык : English
Default : Да
Forced : Нет
Аудио #1
Идентификатор : 2
Формат : AC-3
Формат/Информация : Audio Coding 3
Расширение режима : CM (complete main)
Параметр Endianness формата : Big
Идентификатор кодека : A_AC3
Продолжительность : 1 ч. 36 м.
Вид битрейта : Постоянный
Битрейт : 384 Кбит/сек
Каналы : 6 каналов
Расположение каналов : Front: L C R, Side: L R, LFE
Частота : 48,0 КГц
Битовая глубина : 16 бит
Метод сжатия : С потерями
Размер потока : 264 Мбайт (3%)
Заголовок : D | iTunes
Язык : Russian
Default : Да
Forced : Нет
Аудио #2
Идентификатор : 3
Формат : AC-3
Формат/Информация : Audio Coding 3
Расширение режима : CM (complete main)
Параметр Endianness формата : Big
Идентификатор кодека : A_AC3
Продолжительность : 1 ч. 36 м.
Вид битрейта : Постоянный
Битрейт : 640 Кбит/сек
Каналы : 6 каналов
Расположение каналов : Front: L C R, Side: L R, LFE
Частота : 48,0 КГц
Битовая глубина : 16 бит
Метод сжатия : С потерями
Размер потока : 440 Мбайт (6%)
Заголовок : Original
Язык : English
Default : Нет
Forced : Нет
Текст #1
Идентификатор : 4
Формат : UTF-8
Идентификатор кодека : S_TEXT/UTF8
Идентификатор кодека/Информация : UTF-8 Plain Text
Заголовок : Full
Язык : English
Default : Нет
Forced : Нет
Текст #2
Идентификатор : 5
Формат : UTF-8
Идентификатор кодека : S_TEXT/UTF8
Идентификатор кодека/Информация : UTF-8 Plain Text
Заголовок : SDH
Язык : English
Default : Нет
Forced : Нет
Текст #3
Идентификатор : 6
Формат : UTF-8
Идентификатор кодека : S_TEXT/UTF8
Идентификатор кодека/Информация : UTF-8 Plain Text
Заголовок : SDH-Colored
Язык : English
Default : Нет
Forced : Нет
Меню
00:00:00.000 : en:00:00:00.000
00:05:52.143 : en:00:05:52.143
00:11:53.296 : en:00:11:53.296
00:15:21.337 : en:00:15:21.337
00:20:22.805 : en:00:20:22.805
00:27:08.502 : en:00:27:08.502
00:32:25.944 : en:00:32:25.944
00:36:26.518 : en:00:36:26.518
00:41:45.920 : en:00:41:45.920
00:45:45.284 : en:00:45:45.284
00:51:57.281 : en:00:51:57.281
00:56:00.107 : en:00:56:00.107
01:02:03.887 : en:01:02:03.887
01:07:26.209 : en:01:07:26.209
01:11:27.867 : en:01:11:27.867
01:16:27.875 : en:01:16:27.875
01:22:05.671 : en:01:22:05.671
01:25:30.375 : en:01:25:30.375
01:27:33.248 : en:01:27:33.248
01:30:00.687 : en:01:30:00.687




реклама партнёра


Вернуться к началу
 Профиль Отправить личное сообщение  
 
   Похожие торренты   Автор   Торрент   Размер 
В этой теме нет новых непрочитанных сообщений. Семейка монстров / The Boxtrolls [мультфильм, фэнтези, комедия, приключения, семейный, 2014] BDRip 720p, Dub [iTunes]

Dracon

16 | 3

4.72 ГБ

В этой теме нет новых непрочитанных сообщений. Семейка монстров / The Boxtrolls [мультфильм, фэнтези, комедия, приключения, семейный, 2014] WEB-DLRip, Dub [iTunes]

Dracon

23 | 3

1.37 ГБ

В этой теме нет новых непрочитанных сообщений. Семейка монстров / The Boxtroll [мультфильм, фэнтези, комедия, приключения, семейный, 2014] BDRip 1080p, Dub [3D-Video | iTunes]

Dracon

29 | 6

8.33 ГБ

В этой теме нет новых непрочитанных сообщений. Семейка монстров / The Boxtroll [мультфильм, фэнтези, комедия, приключения, семейный, 2014] WEB-DL 1080p, Dub [iTunes]

Dracon

16 | 2

3.71 ГБ

В этой теме нет новых непрочитанных сообщений. Семейка монстров /  The Boxtroll [мультфильм, фэнтези, комедия, приключения, семейный, 2014] WEB-DL 720p, Dub [iTunes]

Dracon

2 | 2

2.98 ГБ

В этой теме нет новых непрочитанных сообщений. Приключения мистера Пибоди и Шермана / Mr. Peabody & Sherman [Мультфильм, Фантастика, Комедия, Приключения, Семейный, 2014] BDRip 1080p, Dub+Sub [iTunes | 3D-Video]

Dracon

35 | 3

6.34 ГБ

В этой теме нет новых непрочитанных сообщений. Самолёты: Огонь и вода / Planes: Fire and Rescue [мультфильм, комедия, приключения, семейный, 2014] BDRip 1080p, dub [iTunes Russia]

Dracon

216 | 3

5.65 ГБ


Начать новую тему Ответить на тему  [ 1 сообщение ] 




Для Мосгорсуда, Роскомнадзора и рекламодателей:: mosgorsud-torrent[собачка]yandex.ru