Торрент файл
скачать торрент магнет ссылка Добавлен: 27 ноя 2014, 23:55
Размер: 8.08 ГБ
Сидеров: 24
Личеров: 2
Автор

СообщениеДобавлено: 27 ноя 2014, 23:55 

В сети
Супермодератор
Аватара пользователя
Дата регистрации:
15 фев 2012, 16:44
Возраст: 27
Спасибо: 5148 / 2090
Сообщения: 17558
Год выхода: 2007
Жанр: мультфильм, комедия, семейный, спорт
Режиссер: Эш Браннон, Крис Бак

В ролях: Шайа ЛаБаф, Джефф Бриджес, Зои Дешанель, Джон Хидер, Джеймс Вудс, Дидрих Бадер, Марио Кантоне, Келли Слэйтер, Роб Мачадо, Сал Масикела

О фильме: Кто из нас не мечтает поддаться течению, насладиться ласковыми волнами или, в конце концов, покорить водную стихию, когда морская пучина проявляет свой дикий темперамент? Главный герой комедийного анимационного фильма – молодой и амбициозный пингвин Коди - как раз только и грезит тем, чтобы обуздать самую высокую волну на предстоящем величайшем соревновании по серфингу. Благодаря съемочной группе, которая неустанно следит за восходящей звездой Коди, мы проникаем за кулисы элитного спорта. И, когда на своем пути к славе Коди встречает некогда знаменитого, но ныне вышедшего в тираж сёрфингиста Гика (Джеф Бриджес), он пересматривает свои взгляды на победу и понимает, что истинный победитель не всегда тот, кто пришел первым. Поддержат ли Коди друзья?



Выпущено: Sony Pictures Animation

Файл
Качество: BDRip (1080p)
Видео: MPEG-4 AVC, 11.7 Мбит/с, 1920х1040
Аудио: Русский, украинский, английский (АС3, 6 ch, 448 Кбит/с)
Продолжительность: 01:25:31
Перевод: Дублированный, авторский
Субтитры: Русские, английские

Аудио №1: Русский (AC3, 6 ch, 448 Кбит/с) - Дублированный
Аудио №2: Русский (AC3, 6 ch, 448 Кбит/с) - Авторский одноголосый (Королев)
Аудио №3: Украинский (AC3, 6 ch, 448 Кбит/с) - Дублированный
Аудио №:4 Английский (AC3, 6 ch, 448 Кбит/с)

Формат : Matroska
Размер файла : 8,08 Гбайт
Продолжительность : 1 ч. 25 м.
Общий поток : 13,5 Мбит/сек
Название фильма : Lovi.volnu.2007.x264.BDRip.(1080p).ExKinoRay
Дата кодирования : UTC 2014-11-27 16:47:04
Программа кодирования : mkvmerge v4.0.0 ('The Stars were mine') сборка от Jun 6 2010 16:18:42
Библиотека кодирования : libebml v1.0.0 + libmatroska v1.0.0

Видео
Идентификатор : 1
Формат : AVC
Формат/Информация : Advanced Video Codec
Профиль формата : High@L4.1
Параметр CABAC формата : Да
Параметр ReFrames формата : 4 кадра
Идентификатор кодека : V_MPEG4/ISO/AVC
Продолжительность : 1 ч. 25 м.
Битрейт : 11,7 Мбит/сек
Ширина : 1920 пикс.
Высота : 1040 пикс.
Соотношение сторон : 16:9
Частота кадров : 23,976 кадр/сек
Цветовое пространство : YUV
Подвыборка цветности : 4:2:0
Битовая глубина : 8 бит
Тип развёртки : Прогрессивная
Бит/(Пиксели*Кадры) : 0.245
Размер потока : 6,84 Гбайт (85%)
Заголовок : Rip by Enigma-Vladislav71
Библиотека кодирования : x264 core 125 r2208 d9d2288
Настройки программы : cabac=1 / ref=4 / deblock=1:-3:-3 / analyse=0x3:0x133 / me=umh / subme=11 / psy=1 / psy_rd=1.00:0.00 / mixed_ref=1 / me_range=32 / chroma_me=1 / trellis=2 / 8x8dct=1 / cqm=0 / deadzone=21,11 / fast_pskip=0 / chroma_qp_offset=-2 / threads=3 / lookahead_threads=1 / sliced_threads=0 / nr=0 / decimate=0 / interlaced=0 / bluray_compat=0 / constrained_intra=0 / bframes=8 / b_pyramid=2 / b_adapt=2 / b_bias=0 / direct=3 / weightb=1 / open_gop=0 / weightp=2 / keyint=240 / keyint_min=23 / scenecut=40 / intra_refresh=0 / rc=2pass / mbtree=0 / bitrate=11729 / ratetol=1.0 / qcomp=0.60 / qpmin=10 / qpmax=51 / qpstep=4 / cplxblur=20.0 / qblur=0.5 / ip_ratio=1.40 / pb_ratio=1.30 / aq=1:1.00
Язык : English

Аудио #1
Идентификатор : 2
Формат : AC-3
Формат/Информация : Audio Coding 3
Расширение режима : CM (complete main)
Идентификатор кодека : A_AC3
Продолжительность : 1 ч. 25 м.
Вид битрейта : Постоянный
Битрейт : 448 Кбит/сек
Каналы : 6 каналов
Расположение каналов : Front: L C R, Side: L R, LFE
Частота : 48,0 КГц
Битовая глубина : 16 бит
Метод сжатия : С потерями
Размер потока : 274 Мбайт (3%)
Заголовок : Дублированный
Язык : Russian

Аудио #2
Идентификатор : 3
Формат : AC-3
Формат/Информация : Audio Coding 3
Расширение режима : CM (complete main)
Идентификатор кодека : A_AC3
Продолжительность : 1 ч. 25 м.
Вид битрейта : Постоянный
Битрейт : 448 Кбит/сек
Каналы : 6 каналов
Расположение каналов : Front: L C R, Side: L R, LFE
Частота : 48,0 КГц
Битовая глубина : 16 бит
Метод сжатия : С потерями
Размер потока : 274 Мбайт (3%)
Заголовок : Авторский одноголосый (Королев)
Язык : Russian

Аудио #3
Идентификатор : 4
Формат : AC-3
Формат/Информация : Audio Coding 3
Расширение режима : CM (complete main)
Идентификатор кодека : A_AC3
Продолжительность : 1 ч. 25 м.
Вид битрейта : Постоянный
Битрейт : 448 Кбит/сек
Каналы : 6 каналов
Расположение каналов : Front: L C R, Side: L R, LFE
Частота : 48,0 КГц
Битовая глубина : 16 бит
Метод сжатия : С потерями
Размер потока : 274 Мбайт (3%)
Заголовок : Дублированный украинский
Язык : Ukrainian

Аудио #4
Идентификатор : 5
Формат : AC-3
Формат/Информация : Audio Coding 3
Расширение режима : CM (complete main)
Идентификатор кодека : A_AC3
Продолжительность : 1 ч. 25 м.
Вид битрейта : Постоянный
Битрейт : 448 Кбит/сек
Каналы : 6 каналов
Расположение каналов : Front: L C R, Side: L R, LFE
Частота : 48,0 КГц
Битовая глубина : 16 бит
Метод сжатия : С потерями
Размер потока : 274 Мбайт (3%)
Заголовок : Английский
Язык : English

Текст #1
Идентификатор : 6
Формат : UTF-8
Идентификатор кодека : S_TEXT/UTF8
Идентификатор кодека/Информация : UTF-8 Plain Text
Язык : Russian

Текст #2
Идентификатор : 7
Формат : UTF-8
Идентификатор кодека : S_TEXT/UTF8
Идентификатор кодека/Информация : UTF-8 Plain Text
Язык : English

Меню
00:00:00.000 : en:Chapter 01
00:06:08.159 : en:Chapter 02
00:12:08.519 : en:Chapter 03
00:17:43.061 : en:Chapter 04
00:23:06.176 : en:Chapter 05
00:27:52.920 : en:Chapter 06
00:33:00.854 : en:Chapter 07
00:38:14.417 : en:Chapter 08
00:44:13.401 : en:Chapter 09
00:46:43.384 : en:Chapter 10
00:51:40.014 : en:Chapter 11
00:55:47.386 : en:Chapter 12
01:02:08.600 : en:Chapter 13
01:07:54.946 : en:Chapter 14
01:12:10.993 : en:Chapter 15
01:16:24.622 : en:Chapter 16


Релиз от: Авторы релиза:


_________________



реклама партнёра


Вернуться к началу
 Профиль Отправить личное сообщение  
 
   Похожие торренты   Автор   Торрент   Размер 
В этой теме нет новых непрочитанных сообщений. Волшебный футбол / Metegol [мультфильм, приключения, семейный, спорт, 2013] BDRip 1080p, Mvo+Sub [AlexFilm]

Dracon

29 | 5

10.82 ГБ

В этой теме нет новых непрочитанных сообщений. Большая игра / Волшебный футбол / Настольный футбол / Metegol [мультфильм, приключения, семейный, спорт, 2013] BDRip 1080p, Mvo+Sub [AlexFilm | 3D-Video]

Dracon

113 | 25

6.86 ГБ

В этой теме нет новых непрочитанных сообщений. Божьи коровки / Ladybugs [комедия, семейный, спорт, 1992] BDRip 1080p, 2Dvo+Sub

salma3

19 | 4

10.09 ГБ

В этой теме нет новых непрочитанных сообщений. Рио 2 / Rio 2 [Мультфильм, комедия, приключения, семейный, 2014] BDRip 1080p, Dub+Sub [Лицензия | 3D-Video]

Dracon

607 | 32

7.63 ГБ

В этой теме нет новых непрочитанных сообщений. Рио 2 / Rio 2 [Мультфильм, комедия, приключения, семейный, 2014] BDRip 1080p, dub [Чистый звук]

Dracon

274 | 6

8.19 ГБ

В этой теме нет новых непрочитанных сообщений. Реальная белка / The Nut Job [мультфильм, комедия, приключения, семейный, 2014] BDRip 1080p, Mvo [3D Video]

Dracon

10 | 5

6.59 ГБ

В этой теме нет новых непрочитанных сообщений. Рио 2 / Rio 2 (Карлос Салдана) [2014, мультфильм, комедия, приключения, семейный, BDRip 1080p | Лицензия]

Dracon

596 | 14

9.24 ГБ


Начать новую тему Ответить на тему  [ 1 сообщение ] 




Для Мосгорсуда, Роскомнадзора и рекламодателей:: mosgorsud-torrent[собачка]yandex.ru