Торрент файл
скачать торрент магнет ссылка Добавлен: 22 ноя 2014, 16:04
Размер: 1.37 ГБ
Сидеров: 20
Личеров: 3
Автор

СообщениеДобавлено: 22 ноя 2014, 16:04 

Не в сети
Зам. Админа
Аватара пользователя
Дата регистрации:
02 дек 2010, 12:39
Спасибо: 12461 / 214
Сообщения: 27968
Год выхода: 2014
Жанр: мультфильм, триллер, семейный
Режиссер: Пол МакЭвой
В ролях: Фрэнк Уэлкер, Минди Кон, Грэй ДеЛисл, Мэттью Лиллард, Дидрих Бадер, Ди Брэдли Бейкер, Эрик Бауза, Джефф Беннетт, Сьюзан Блэйксли, Кори Бертон

О фильме:
Компания друзей узнают, что их злобные враги, которых они так долго сажали в тюрьму, вышли и объединились, теперь им нужно скрыться на время. И вот, друзья снова в своем небольшом фургоне и на всех парах едут в Пенсильванию. Прибыв туда, они решаются остановиться в замке.. Но пока друзья думали о том, какой им план разработать по собственному спасению, Скуби и Шегги уже в новые неприятности влипли. Друзей ждет еще больше приключений в загадочном мрачном старинном замке.
Новые приключения в Пенсильвании ждут главных героев.
Например ведьма Велма, которая не на стороне добра, в городе есть загадочные существа. Время покажет, что проживать в замки не так уж и весело, ведь он с мистическими событиями. Переждав немного компания друзей не решаются больше оставаться в замке и уезжают на своем чудном фургоне.
Как всегда Скуби и его лучший друг Шегги нарываются в городе Пенсильвании на новые серьезные приключения, из которых выбираться всем, но самое важное остается для двух весельчаков - это их желудки. Фред и Дафни сражаются в пещере с преступником лицо, которого скрыто под маской. Призрак из прошлого который так умело сражался с Фредом замыслил уничтожить друзей в этом ему помогает ведьма из замка. Что же будет дальше с главными героями? Ответы рядом.



Файл
Качество: HDRip
Видео: XviD, ~1333 Kb/s, 720x400, 23.976 fps
Аудио: AC3, 320 Kb/s (2 ch), 48.0 KHz
Продолжительность: 01:13:53
Перевод: Профессиональный (многоголосный) [Line]
E:с торрентовScooby-Doo.Frankencreepy.HDRip.avi
  General
    Complete name : E:с торрентовScooby-Doo.Frankencreepy.HDRip.avi
    Format : AVI
    Format/Info : Audio Video Interleave
    File size : 1.37 GiB
    Duration : 1h 13mn
    Overall bit rate : 2 650 Kbps
    Movie name : S
    Director : k
    Writing application : V
    Copyright : [
  Video #0
    ID : 0
    Format : MPEG-4 Visual
    Format profile : Advanced Simple@L5
    Format settings, BVOP : 2
    Format settings, QPel : No
    Format settings, GMC : No warppoints
    Format settings, Matrix : Custom
    Codec ID : XVID
    Codec ID/Hint : XviD
    Duration : 1h 13mn
    Bit rate : 2 328 Kbps
    Width : 720 pixels
    Height : 400 pixels
    Display aspect ratio : 16:9
    Frame rate : 23.976 fps
    Color space : YUV
    Chroma subsampling : 4:2:0
    Bit depth : 8 bits
    Scan type : Progressive
    Compression mode : Lossy
    Bits/(Pixel*Frame) : 0.337
    Stream size : 1.20 GiB (88%)
    Writing library : XviD 1.2.1 (UTC 2008-12-04)
  Audio #1
    ID : 1
    Format : AC-3
    Format/Info : Audio Coding 3
    Mode extension : CM (complete main)
    Format settings, Endianness : Big
    Codec ID : 2000
    Duration : 1h 12mn
    Bit rate mode : Constant
    Bit rate : 320 Kbps
    Channel(s) : 2 channels
    Channel positions : Front: L R
    Sampling rate : 48.0 KHz
    Bit depth : 16 bits
    Compression mode : Lossy
    Stream size : 165 MiB (12%)
    Alignment : Split accross interleaves
    Interleave, duration : 43 ms (1.02 video frame)
    Interleave, preload duration : 500 ms








реклама партнёра


Вернуться к началу
 Профиль  
 
   Похожие торренты   Автор   Торрент   Размер 
В этой теме нет новых непрочитанных сообщений. Скуби-Ду: Франкен-монстр / Scooby-Doo! Frankencreepy [мультфильм, триллер, семейный, 2014] BDRip 1080p, mvo [Line]

Dracon

74 | 9

4.53 ГБ

В этой теме нет новых непрочитанных сообщений. Скуби-Ду! Лунный безумный монстр (Скуби-Ду! Безумие Лунного Монстра) / Scooby-Doo! Moon Monster Madness (Пол МакЭвой) [Мультфильм, ужасы, детектив, комедия, полнометражный, 2015] WEB-DL 1080p, Mvo+Sub

Dracon

27 | 6

3.1 ГБ

В этой теме нет новых непрочитанных сообщений. Скуби-Ду! Лунный безумный монстр (Скуби-Ду! Безумие Лунного Монстра) / Scooby-Doo! Moon Monster Madness (Пол МакЭвой) [Мультфильм, ужасы, детектив, комедия, полнометражный, 2015] WEB-DLRip, Mvo

Dracon

207 | 11

1.37 ГБ

В этой теме нет новых непрочитанных сообщений. Скуби-Ду! Тайна рестлмании / Scooby-Doo! WrestleMania Mystery [мультфильм, 2014] HDRip, Mvo

salma3

146 | 5

1.37 ГБ

В этой теме нет новых непрочитанных сообщений. Скуби-Ду и KISS: Тайна рок-н-ролла / Scooby-Doo! And Kiss: Rock and Roll Mystery (Спайк Брандт, Тони Червоне) [Мультфильм, семейный, 2015] DVDRip, dub [Чистый звук]

Dracon

7 | 0

1.37 ГБ

В этой теме нет новых непрочитанных сообщений. Финансовый монстр / Money Monster [триллер, драма, криминал, 2016] HDRip, Dub [Line]

salma3

7316 | 553

1.46 ГБ

В этой теме нет новых непрочитанных сообщений. Скуби-Ду 3: Тайна начинается / Scooby-Doo! The Mystery Begins [фэнтези, комедия, детектив, семейный, 2009] BDRip, Mvo

salma3

235 | 36

1.45 ГБ


Начать новую тему Ответить на тему  [ 1 сообщение ] 




Для Мосгорсуда, Роскомнадзора и рекламодателей:: mosgorsud-torrent[собачка]yandex.ru