Торрент файл
скачать торрент магнет ссылка Добавлен: 20 ноя 2014, 10:52
Размер: 3.71 ГБ
Сидеров: 16
Личеров: 2
Автор

СообщениеДобавлено: 20 ноя 2014, 10:52 

Не в сети
Зам. Админа
Аватара пользователя
Дата регистрации:
02 дек 2010, 12:39
Спасибо: 12623 / 214
Сообщения: 28012
Год выхода: 2014
Жанр: мультфильм, фэнтези, комедия, приключения, семейный
Режиссер: Грэхэм Эннэйбл, Энтони Стакки
В ролях: Бен Кингсли, Джаред Харрис, Ник Фрост, Ричард Айоади, Трэйси Морган, Ди Брэдли Бейкер, Стивен Блум, Ника Футтерман, Пэт Фрэли

О фильме:
Ему не повезло родиться в роскошном замке. Вместе с семейкой забавных монстров юноша поселился прямо под мостовой. Изысканные костюмы ему заменила обычная коробка. Зато каждую ночь он мог разгуливать по темным улицам в поисках новых приключений. Но однажды он встретил очаровательную девчушку из высшего общества — и мир вокруг изменился навсегда.



Качество: WEB-DL [1080p]
Видео: MPEG-4 AVC, ~5034 kb/s, 1916x1076, 23.976 fps
Аудио: AC3, 6 ch, 384 kb/s, 48.0 KHz
Продолжительность: 01:36:10
Перевод: Дублированный [iTunes]
E:с торрентовSemeyka.M0nstr0v.2014.D.WEB-DL.1080p.mkv
  General
    Unique ID : 250233210535942626187639395087747298273 (0xBC4129CFAD07C2978EA26719439AB3E1)
    Complete name : E:с торрентовSemeyka.M0nstr0v.2014.D.WEB-DL.1080p.mkv
    Format : Matroska
    Format version : Version 4 / Version 2
    File size : 3.71 GiB
    Duration : 1h 36mn
    Overall bit rate : 5 528 Kbps
    Encoded date : UTC 2014-11-19 20:12:02
    Writing application : mkvmerge v6.9.1 ('Blue Panther') 64bit built on Apr 18 2014 18:23:38
    Writing library : libebml v1.3.0 + libmatroska v1.4.1
  Video #1
    ID : 1
    Format : AVC
    Format/Info : Advanced Video Codec
    Format profile : High@L4.0
    Format settings, CABAC : Yes
    Format settings, ReFrames : 4 frames
    Codec ID : V_MPEG4/ISO/AVC
    Duration : 1h 36mn
    Bit rate : 5 034 Kbps
    Width : 1 916 pixels
    Height : 1 076 pixels
    Display aspect ratio : 16:9
    Frame rate mode : Constant
    Frame rate :
    Color space : YUV
    Chroma subsampling : 4:2:0
    Bit depth : 8 bits
    Scan type : Progressive
    Bits/(Pixel*Frame) : 0.102
    Stream size : 3.38 GiB (91%)
    Language : English
    Default : Yes
    Forced : No
    Color primaries : BT.709
    Transfer characteristics : BT.709
    Matrix coefficients : BT.709
  Audio #2
    ID : 2
    Format : AC-3
    Format/Info : Audio Coding 3
    Mode extension : CM (complete main)
    Format settings, Endianness : Big
    Codec ID : A_AC3
    Duration : 1h 36mn
    Bit rate mode : Constant
    Bit rate : 384 Kbps
    Channel(s) : 6 channels
    Channel positions : Front: L C R, Side: L R, LFE
    Sampling rate : 48.0 KHz
    Bit depth : 16 bits
    Compression mode : Lossy
    Stream size : 264 MiB (7%)
    Language : Russian
    Default : Yes
    Forced : No
  Menu
    00:00:00.000 : en:глава 1
    00:05:54.000 : en:глава 2
    00:11:53.000 : en:глава 3
    00:15:23.000 : en:глава 4
    00:20:24.000 : en:глава 5
    00:27:10.000 : en:глава 6
    00:32:25.000 : en:глава 7
    00:36:28.000 : en:глава 8
    00:41:47.000 : en:глава 9
    00:45:47.000 : en:глава 10
    00:51:59.000 : en:глава 11
    00:55:59.000 : en:глава 12
    01:02:05.000 : en:глава 13
    01:07:28.000 : en:глава 14
    01:11:29.000 : en:глава 15
    01:16:29.000 : en:глава 16
    01:22:07.000 : en:глава 17
    01:25:32.000 : en:глава 18
    01:27:33.000 : en:глава 19
    01:30:02.000 : en:глава 20








реклама партнёра


Вернуться к началу
 Профиль  
 
   Похожие торренты   Автор   Торрент   Размер 
В этой теме нет новых непрочитанных сообщений. Семейка монстров / The Boxtroll [мультфильм, фэнтези, комедия, приключения, семейный, 2014] BDRip 1080p, Dub [3D-Video | iTunes]

Dracon

29 | 6

8.33 ГБ

В этой теме нет новых непрочитанных сообщений. Семейка монстров / The Boxtrolls [мультфильм, фэнтези, комедия, приключения, семейный, 2014] BDRip 720p, Dub [iTunes]

Dracon

16 | 3

4.72 ГБ

В этой теме нет новых непрочитанных сообщений. Семейка монстров / The Boxtrolls (Грэхэм Эннэйбл, Энтони Стакки) [2014, Комедия, мультфильм, приключения, семейный, BDRip 1080p | iTunes]

Nickolas3435

385 | 22

7.63 ГБ

В этой теме нет новых непрочитанных сообщений. Книга жизни  / The Book of Life (Хорхе Р. Гутьеррес) [Мультфильм, фэнтези, мелодрама, комедия, приключения, семейный, 2014] BDRip 1080p, Dub [iTunes]

Dracon

18 | 2

8 ГБ

В этой теме нет новых непрочитанных сообщений. Книга жизни / The Book of Life (Хорхе Р. Гутьеррес) [Мультфильм, Фэнтези, Мелодрама, Комедия, Приключения, Семейный, 2014] BDRip 1080p, Dub+Sub [3D-Video | iTunes]

Dracon

75 | 3

7.92 ГБ

В этой теме нет новых непрочитанных сообщений. Феи: Легенда о чудовище / Legend of the NeverBeast (Стив Лотер) [мультфильм, фэнтези, приключения, семейный, 2014] BDRip 1080p, Dub [iTunes Russia]

Dracon

43 | 4

9.55 ГБ

В этой теме нет новых непрочитанных сообщений. Дом / Home (Тим Джонсон) [мультфильм, фантастика, фэнтези, комедия, приключения, семейный, 2015] BDRip 1080p, Dub [iTunes]

Dracon

67 | 6

4.62 ГБ


Начать новую тему Ответить на тему  [ 1 сообщение ] 




Для Мосгорсуда, Роскомнадзора и рекламодателей:: mosgorsud-torrent[собачка]yandex.ru