Торрент файл
скачать торрент магнет ссылка Добавлен: 13 ноя 2014, 11:13
Размер: 1.37 ГБ
Сидеров: 231
Личеров: 8
Автор

СообщениеДобавлено: 13 ноя 2014, 11:13 

Не в сети
Зам. Админа
Аватара пользователя
Дата регистрации:
02 дек 2010, 12:39
Спасибо: 12461 / 214
Сообщения: 27968
Год выхода: 2014
Жанр: мультфильм, фэнтези, приключения, семейный
Режиссер: Юуефенг Сонг
В ролях:  Блайт Оффарт, Бьянка Коллинз, Саймон Джэглом

О фильме:
История путешествия молодого воина, желающего найти и уничтожить легендарного Черного дракона, который поверг его мир во тьму.



Качество: WebRip
Видео: XviD, ~1973 kb/s, 720x400, 24.000 fps
Аудио: AC3, 192 kb/s (2 ch), 44.1 KHz
Продолжительность: 01:30:01
Перевод: Любительский (двухголосый) [R.G. TheAngelOfDeath&SweetySacrifice]
Субтитры: китайские (хардсаб)
E:с торрентовGnezdo.drakona.2014.L2.WEBRip.1400MB.avi
  General
    Complete name : E:с торрентовGnezdo.drakona.2014.L2.WEBRip.1400MB.avi
    Format : AVI
    Format/Info : Audio Video Interleave
    File size : 1.37 GiB
    Duration : 1h 30mn
    Overall bit rate : 2 174 Kbps
    Writing application : VirtualDubMod 1.5.10.2 (build 2540/release)
    Writing library : VirtualDubMod build 2540/release
  Video #0
    ID : 0
    Format : MPEG-4 Visual
    Format profile : Advanced Simple@L5
    Format settings, BVOP : 2
    Format settings, QPel : No
    Format settings, GMC : No warppoints
    Format settings, Matrix : Default (MPEG)
    Codec ID : XVID
    Codec ID/Hint : XviD
    Duration : 1h 30mn
    Bit rate : 1 973 Kbps
    Width : 720 pixels
    Height : 400 pixels
    Display aspect ratio : 16:9
    Frame rate : 24.000 fps
    Color space : YUV
    Chroma subsampling : 4:2:0
    Bit depth : 8 bits
    Scan type : Progressive
    Compression mode : Lossy
    Bits/(Pixel*Frame) : 0.285
    Stream size : 1.24 GiB (91%)
    Writing library : XviD 1.2.1 (UTC 2008-12-04)
  Audio #1
    ID : 1
    Format : AC-3
    Format/Info : Audio Coding 3
    Mode extension : CM (complete main)
    Format settings, Endianness : Big
    Codec ID : 2000
    Duration : 1h 30mn
    Bit rate mode : Constant
    Bit rate : 192 Kbps
    Channel(s) : 2 channels
    Channel positions : Front: L R
    Sampling rate : 44.1 KHz
    Bit depth : 16 bits
    Compression mode : Lossy
    Delay relative to video : 28ms
    Stream size : 124 MiB (9%)
    Alignment : Split accross interleaves
    Interleave, duration : 42 ms (1.00 video frame)
    Interleave, preload duration : 500 ms












реклама партнёра


Вернуться к началу
 Профиль  
 
   Похожие торренты   Автор   Торрент   Размер 
В этой теме нет новых непрочитанных сообщений. Гнездо дракона / Dragon Nest: Warriors' Dawn (Юэфэн Сун) [фэнтези, приключения, семейный, 2014] WEBRip, dub [Чистый звук]

Dracon

26 | 3

1.37 ГБ

В этой теме нет новых непрочитанных сообщений. Гнездо дракона / Dragon Nest: Warriors' Dawn (Юэфэн Сун) [фэнтези, приключения, семейный, 2014] WEBRip 720p, dub [Чистый звук]

Dracon

139 | 2

1.84 ГБ

В этой теме нет новых непрочитанных сообщений. Гнездо дракона / Dragon Nest: Warriors' Dawn (Юэфэн Сун) [фэнтези, приключения, семейный, 2014] WEB-DLRip, dub [Чистый звук]

Dracon

7 | 1

1.37 ГБ

В этой теме нет новых непрочитанных сообщений. Гнездо дракона / Dragon Nest: Warriors' Dawn (Юэфэн Сун) [фэнтези, приключения, семейный, 2014] WEB-DL 720p, dub [Чистый звук]

Dracon

7 | 1

2.8 ГБ

В этой теме нет новых непрочитанных сообщений. Гнездо дракона / Dragon Nest: Warriors' Dawn (Юэфэн Сун) [фэнтези, приключения, семейный, 2014] BDRip 1080p, Dub [3D-Video | BD Rus]

Dracon

355 | 21

7.56 ГБ

В этой теме нет новых непрочитанных сообщений. Логово дракона: История воина / Dragon Nest: Warriors' Dawn (Юуефенг Сонг) [2014, фэнтези, приключения, семейный, анимэ, WEBRip 720p] dvo

Nickolas3435

1092 | 20

1.8 ГБ

В этой теме нет новых непрочитанных сообщений. Как приручить дракона 2 / How to Train Your Dragon 2 [мультфильм, фэнтези, комедия, приключения, семейный, 2014] CAMRip, Dub

hobbit1021

1041 | 19

1.36 ГБ


Начать новую тему Ответить на тему  [ 1 сообщение ] 




Для Мосгорсуда, Роскомнадзора и рекламодателей:: mosgorsud-torrent[собачка]yandex.ru