Торрент файл
скачать торрент магнет ссылка Добавлен: 11 ноя 2014, 16:12
Размер: 4.9 ГБ
Сидеров: 11
Личеров: 2
Статус: (Dracon)
Автор

СообщениеДобавлено: 11 ноя 2014, 16:12 

Не в сети
Зам. Админа
Аватара пользователя
Дата регистрации:
02 дек 2010, 12:39
Спасибо: 12461 / 214
Сообщения: 27968
Год выхода: 2014
Жанр: Мультфильм, комедия, приключения, семейный
Режиссер: Роберт Ганнавей
Роли дублировали:  Константин Крюков, Сергей Чихачев, Анна Ардова, Даниил Эльдаров

О фильме:
Самолетик Дасти, который стал уже легендой воздушных гонок, вскоре узнает, что его двигатель сильно повреждён, и он никогда не может больше участвовать в скоростных воздушных гонках. Дасти ищет себе новое занятие и знакомится с мужественной пожарно-спасательной командой, которой руководит ветеран авиации вертолёт по имени Ренждер. Узнав, насколько тяжела и опасна работа пожарной авиации, Дасти поймёт, что такое настоящий героизм и самоотдача, и сам захочет стать спасателем.

  

Качество: BDRip [720p]
Видео:  AVC, 1280x536 (16:9), 23,976 fps, 6 074  Kbps
Аудио 1: AC-3, 48 Hz, 6 ch, 640 Kbps  Русский
Аудио 2: DTS, 48 Hz, 6 ch, 1 509 Kbps   Английский
Продолжительность: 01:23:238
Перевод: Дублированный [Лицензия]
Субтитры: Английские, румынский

Общее
Уникальный идентификатор                 : 236222418705925666267453053465013168213 (0xB1B6C870DC9560289211E020C4EAA855)
Полное имя                               : Dlanes.Fire.&.Rescue.2014.720p.mkv
Формат                                   : Matroska
Версия формата                           : Version 4 / Version 2
Размер файла                             : 4,90 Гбайт
Продолжительность                        : 1 ч. 23 м.
Общий поток                              : 8390 Кбит/сек
Дата кодирования                         : UTC 2014-11-11 08:31:43
Программа кодирования                    : mkvmerge v7.0.0 ('Where We Going') 64bit built on Jun  9 2014 15:16:27
Библиотека кодирования                   : libebml v1.3.0 + libmatroska v1.4.1
DURATION                                 : 01:22:38.569000000
NUMBER_OF_FRAMES                         : 1486
NUMBER_OF_BYTES                          : 53261
_STATISTICS_WRITING_APP                  : mkvmerge v7.0.0 ('Where We Going') 64bit built on Jun  9 2014 15:16:27
_STATISTICS_WRITING_DATE_UTC             : 2014-11-11 08:31:43
_STATISTICS_TAGS                         : BPS DURATION NUMBER_OF_FRAMES NUMBER_OF_BYTES

Видео
Идентификатор                            : 1
Формат                                   : AVC
Формат/Информация                        : Advanced Video Codec
Профиль формата                          : High@L4.1
Параметр CABAC формата                   : Да
Параметр ReFrames формата                : 12 кадров
Идентификатор кодека                     : V_MPEG4/ISO/AVC
Продолжительность                        : 1 ч. 23 м.
Битрейт                                  : 6074 Кбит/сек
Ширина                                   : 1280 пикселей
Высота                                   : 536 пикселей
Соотношение сторон                       : 2,40:1
Режим частоты кадров                     : Постоянный
Частота кадров                           : 23,976 кадра/сек
Цветовое пространство                    : YUV
Субдискретизация насыщенности            : 4:2:0
Битовая глубина                          : 8 бит
Тип развёртки                            : Прогрессивная
Бит/(Пиксели*Кадры)                      : 0.369
Размер потока                            : 3,55 Гбайт (72%)
Заголовок                                : Planes.Fire.and.Rescue.2014.720p.BluRay.DTS.x264-HDAccess
Библиотека кодирования                   : x264 core 142 r2479kMod dd79a61
Настройки программы                      : cabac=1 / ref=12 / deblock=1:-3:-3 / analyse=0x3:0x133 / me=umh / subme=10 / psy=1 / fade_compensate=0.00 / psy_rd=0.80:0.00 / mixed_ref=1 / me_range=24 / chroma_me=1 / trellis=2 / 8x8dct=1 / cqm=0 / deadzone=21,11 / fast_pskip=0 / chroma_qp_offset=-2 / threads=18 / lookahead_threads=3 / sliced_threads=0 / nr=0 / decimate=1 / interlaced=0 / bluray_compat=0 / constrained_intra=0 / fgo=0 / bframes=8 / b_pyramid=2 / b_adapt=2 / b_bias=0 / direct=3 / weightb=1 / open_gop=0 / weightp=2 / keyint=230 / keyint_min=23 / scenecut=40 / intra_refresh=0 / rc_lookahead=40 / rc=crf / mbtree=0 / crf=13.0000 / qcomp=0.70 / qpmin=0 / qpmax=69 / qpstep=4 / vbv_maxrate=50000 / vbv_bufsize=62500 / crf_max=0.0 / nal_hrd=none / filler=0 / ip_ratio=1.30 / pb_ratio=1.20 / aq=1:1.00
Язык                                     : English
Default                                  : Да
Forced                                   : Нет
DURATION                                 : 01:23:38.472000000
NUMBER_OF_FRAMES                         : 120323
NUMBER_OF_BYTES                          : 3956054783
_STATISTICS_WRITING_APP                  : mkvmerge v7.0.0 ('Where We Going') 64bit built on Jun  9 2014 15:16:27
_STATISTICS_WRITING_DATE_UTC             : 2014-11-11 08:31:43
_STATISTICS_TAGS                         : BPS DURATION NUMBER_OF_FRAMES NUMBER_OF_BYTES
Коэффициенты матрицы                     : BT.709

Аудио #1
Идентификатор                            : 2
Формат                                   : AC-3
Формат/Информация                        : Audio Coding 3
Расширение режима                        : CM (complete main)
Параметр Endianness формата              : Big
Идентификатор кодека                     : A_AC3
Продолжительность                        : 1 ч. 23 м.
Вид битрейта                             : Постоянный
Битрейт                                  : 640 Кбит/сек
Каналы                                   : 6 каналов
Расположение каналов                     : Front: L C R, Side: L R, LFE
Частота                                  : 48,0 КГц
Битовая глубина                          : 16 бит
Метод сжатия                             : С потерями
Размер потока                            : 383 Мбайт (8%)
Язык                                     : Russian
Default                                  : Да
Forced                                   : Нет

Аудио #2
Идентификатор                            : 3
Формат                                   : DTS
Формат/Информация                        : Digital Theater Systems
Режим                                    : 16
Параметр Endianness формата              : Big
Идентификатор кодека                     : A_DTS
Продолжительность                        : 1 ч. 23 м.
Вид битрейта                             : Постоянный
Битрейт                                  : 1509 Кбит/сек
Каналы                                   : 6 каналов
Расположение каналов                     : Front: L C R, Side: L R, LFE
Частота                                  : 48,0 КГц
Битовая глубина                          : 24 бит
Метод сжатия                             : С потерями
Размер потока                            : 903 Мбайт (18%)
Язык                                     : English
Default                                  : Нет
Forced                                   : Нет

Текст #1
Идентификатор                            : 4
Формат                                   : UTF-8
Идентификатор кодека                     : S_TEXT/UTF8
Идентификатор кодека/Информация          : UTF-8 Plain Text
Язык                                     : Romanian
Default                                  : Нет
Forced                                   : Нет

Текст #2
Идентификатор                            : 5
Формат                                   : UTF-8
Идентификатор кодека                     : S_TEXT/UTF8
Идентификатор кодека/Информация          : UTF-8 Plain Text
Заголовок                                : Full
Язык                                     : English
Default                                  : Нет
Forced                                   : Нет

Текст #3
Идентификатор                            : 6
Формат                                   : UTF-8
Идентификатор кодека                     : S_TEXT/UTF8
Идентификатор кодека/Информация          : UTF-8 Plain Text
Заголовок                                : SDH
Язык                                     : English
Default                                  : Нет
Forced                                   : Нет

Текст #4
Идентификатор                            : 7
Формат                                   : UTF-8
Идентификатор кодека                     : S_TEXT/UTF8
Идентификатор кодека/Информация          : UTF-8 Plain Text
Заголовок                                : COLORED
Язык                                     : English
Default                                  : Нет
Forced                                   : Нет

Меню
00:00:00.000                             : en:00:00:00.000
00:03:27.791                             : en:00:03:27.791
00:07:48.593                             : en:00:07:48.593
00:12:36.005                             : en:00:12:36.005
00:17:38.849                             : en:00:17:38.849
00:22:55.165                             : en:00:22:55.165
00:27:45.289                             : en:00:27:45.289
00:32:37.205                             : en:00:32:37.205
00:35:24.789                             : en:00:35:24.789
00:38:31.017                             : en:00:38:31.017
00:41:38.287                             : en:00:41:38.287
00:47:21.046                             : en:00:47:21.046
00:55:00.714                             : en:00:55:00.714
00:57:29.029                             : en:00:57:29.029
01:00:33.880                             : en:01:00:33.880
01:05:22.710                             : en:01:05:22.710
01:09:07.685                             : en:01:09:07.685
01:13:55.264                             : en:01:13:55.264









реклама партнёра


Вернуться к началу
 Профиль  
 
   Похожие торренты   Автор   Торрент   Размер 
В этой теме нет новых непрочитанных сообщений. Самолеты: Огонь и вода / Planes: Fire and Rescue Самолеты: Огонь и вода / Planes: Fire and Rescue [мультфильм, комедия, приключения, семейный, 2014] BDRip 720p, Dub [iTunes]

Dracon

4 | 2

4.79 ГБ

В этой теме нет новых непрочитанных сообщений. Самолеты: Огонь и вода / Planes: Fire and Rescue Самолеты: Огонь и вода / Planes: Fire and Rescue [мультфильм, комедия, приключения, семейный, 2014] Blu-ray 1080p, Dub+Sub

Dracon

15 | 5

29.47 ГБ

В этой теме нет новых непрочитанных сообщений. Самолеты: Огонь и вода / Planes: Fire and RescueСамолеты: Огонь и вода / Planes: Fire and Rescue [мультфильм, комедия, приключения, семейный, 2014] HDRip, Dub [iTunes]

Dracon

67 | 3

1.37 ГБ

В этой теме нет новых непрочитанных сообщений. Самолеты: Огонь и вода / Planes: Fire and Rescue [мультфильм, комедия, приключения, семейный, 2014] BDRip 720p, dub [звук с TS]

Dracon

44 | 3

2.79 ГБ

В этой теме нет новых непрочитанных сообщений. Самолеты: Огонь и вода / Planes: Fire and Rescue [мультфильм, комедия, приключения, семейный, 2014] BDRip 1080p, Dub+Sub [3D-Video | Лицензия]

Dracon

268 | 14

4.48 ГБ

В этой теме нет новых непрочитанных сообщений. Самолеты: Огонь и вода / Planes: Fire and Rescue [мультфильм, комедия, приключения, семейный, 2014] BDRip 720p, dub [Чиcтый звук]

Dracon

2 | 2

4.62 ГБ

В этой теме нет новых непрочитанных сообщений. Самолёты: Огонь и вода / Planes: Fire and Rescue [мультфильм, комедия, приключения, семейный, 2014] BDRip 1080p, dub [iTunes Russia]

Dracon

216 | 3

5.65 ГБ


Начать новую тему Ответить на тему  [ 1 сообщение ] 




Для Мосгорсуда, Роскомнадзора и рекламодателей:: mosgorsud-torrent[собачка]yandex.ru