Торрент файл
скачать торрент магнет ссылка Добавлен: 03 ноя 2014, 12:57
Размер: 1.46 ГБ
Сидеров: 25
Личеров: 3
Статус: (salma3)
Автор

СообщениеДобавлено: 03 ноя 2014, 12:57 

Не в сети
Супермодератор
Аватара пользователя
Дата регистрации:
15 фев 2012, 16:44
Возраст: 27
Спасибо: 5139 / 2090
Сообщения: 17432
Братц: Суперзвезды / Bratz. Rock Angelz

[b]Год выпуска:
2007
Жанр: мультфильм
Режиссер: Муччи Фасет / Mucci Fassett

В ролях: Ясмин, Хлоя, Саша, Джейд, Зая и другие куклы Братц

Описание:
Братц решили создать свой собственный модный журнал. Для того, чтобы сделать его современным и интересным, Ясмин, Хлоя, Саша и Джейд отправляются в Лондон, где каждая из их них должна сделать свой потрясающий репортаж. Об этом узнает злая и вредная владелица модного журнала «Твоя вещь», которая боится, что журнал «Братц» станет ее конкурентом. Для того, чтобы помешать Братц, она, вместе с двумя помошницами едет за ними. В Лондоне Ясмин, Хлою, Сашу, Джейд и их друзей ждут потрясающие впечатления и необычные приключения! Команде Братц придется испытать на прочность даже свою дружбу, а так же проявить ум и смекалку, чтобы не только сделать по-настоящему интересный журнал, но и создать музыкальную группу, которая станет популярной во всем мире



Страна: США
Продолжительность: 01:13:06
Перевод: Профессиональный (полное дублирование)

Файл
Качество: DVDRip
Формат файла: AVI
Видео кодек: XviD
Аудио кодек: AC3
Видео: 720x544 (1.32:1), 25 fps, XviD build 50 ~2272 kbps avg, 0.23 bit/pixel
Аудио1: Русский:48 kHz, AC3 Dolby Digital, 2/0 (L,R) ch, ~384.00 kbps avg
Аудио2: Английский: 48 kHz, AC3 Dolby Digital, 2/0 (L,R) ch, ~192.00 kbps avg

General
Complete name : C:\Users\X666\Desktop\Bratz.Rock.Angelz.DVDRip.DUB.avi
Format : AVI
Format/Info : Audio Video Interleave
File size : 1.46 GiB
Duration : 1h 13mn
Overall bit rate : 2 864 Kbps
Movie name : Bratz. Rock Angelz [ripped by domin8]
Genre : Child's
Writing application : VirtualDubMod 1.5.10.3 | http://www.virtualdub-fr.org || (build 2550/release)
Original source form/Name : Cartoon
Video #0
ID : 0
Format : MPEG-4 Visual
Format profile : Advanced Simple@L5
Format settings, BVOP : Yes
Format settings, QPel : No
Format settings, GMC : No warppoints
Format settings, Matrix : Default (H.263)
Codec ID : XVID
Codec ID/Hint : XviD
Duration : 1h 13mn
Bit rate : 2 274 Kbps
Width : 720 pixels
Height : 544 pixels
Display aspect ratio : 4:3
Frame rate : 25.000 fps
Color space : YUV
Chroma subsampling : 4:2:0
Bit depth : 8 bits
Scan type : Progressive
Bits/(Pixel*Frame) : 0.232
Stream size : 1.16 GiB (79%)
Writing library : XviD 1.2.1 (UTC 2008-12-04)
Audio #1
ID : 1
Format : AC-3
Format/Info : Audio Coding 3
Mode extension : CM (complete main)
Codec ID : 2000
Duration : 1h 13mn
Bit rate mode : Constant
Bit rate : 384 Kbps
Channel(s) : 2 channels
Channel positions : Front: L R
Sampling rate : 48.0 KHz
Bit depth : 16 bits
Stream size : 201 MiB (13%)
Alignment : Split accross interleaves
Interleave, duration : 40 ms (1.00 video frame)
Interleave, preload duration : 500 ms
Title : rus
Audio #2
ID : 2
Format : AC-3
Format/Info : Audio Coding 3
Mode extension : CM (complete main)
Codec ID : 2000
Duration : 1h 13mn
Bit rate mode : Constant
Bit rate : 192 Kbps
Channel(s) : 2 channels
Channel positions : Front: L R
Sampling rate : 48.0 KHz
Bit depth : 16 bits
Stream size : 100 MiB (7%)
Alignment : Split accross interleaves
Interleave, duration : 40 ms (1.00 video frame)
Interleave, preload duration : 500 ms
Title : eng

Релиз от Ripped by


_________________



реклама партнёра


Вернуться к началу
 Профиль Отправить личное сообщение  
 
   Похожие торренты   Автор   Торрент   Размер 
В этой теме нет новых непрочитанных сообщений. Приключения морского дракона / Legend of the Sea [Мультфильм, 2007] DVDRip, Dub

salma3

9 | 9

1.35 ГБ

В этой теме нет новых непрочитанных сообщений. Pintandwefall - Wow! What Was That, Baby [2007, Garage Rock, Punk Rock, Indie Rock, Female Vocal, MP3]

PriZraK

0 | 1

66.86 МБ

В этой теме нет новых непрочитанных сообщений. Игги Арбакл / / Arbuckle / 1 сезон: 1-52 серии из 52 [мультфильм, комедия, приключения, 2007] DVDRip, Dub

salma3

2 | 15

6.95 ГБ

В этой теме нет новых непрочитанных сообщений. Burning Saviours - Nymphs & Weavers [2007, Hard Rock, Stoner Rock, MP3]

PriZraK

0 | 1

156.84 МБ

В этой теме нет новых непрочитанных сообщений. VA - XBox Soundtracks Presents Start [2007, Alternative Rock, Indie Rock, MP3]

PriZraK

0 | 1

155.49 МБ

В этой теме нет новых непрочитанных сообщений. VA-Time Life Music: Rock Classics Complete Series [2007, Rock, MP3]

PriZraK

4 | 3

1.54 ГБ

В этой теме нет новых непрочитанных сообщений. Allusive - A Sign Of Hope [2007, Alternative Rock, Hard Rock, MP3]

PriZraK

0 | 1

51.99 МБ


Начать новую тему Ответить на тему  [ 1 сообщение ] 




Для Мосгорсуда, Роскомнадзора и рекламодателей:: mosgorsud-torrent[собачка]yandex.ru