Торрент файл
скачать торрент магнет ссылка Добавлен: 03 ноя 2014, 12:50
Размер: 1.46 ГБ
Сидеров: 18
Личеров: 4
Статус: (salma3)
Автор

СообщениеДобавлено: 03 ноя 2014, 12:50 

Не в сети
Супермодератор
Аватара пользователя
Дата регистрации:
15 фев 2012, 16:44
Возраст: 27
Спасибо: 5139 / 2089
Сообщения: 17432
Приключения Кристофера в волшебном лесу / O Grilo Feliz

Год выпуска: 2001
Жанр: мультфильм, мюзикл, фэнтези
Режиссер: Волберс Ривас / Walbercy Ribas

В ролях: Рита Альмейда, Родриго Андреатто, Боб Бучольц, Питер Дойл, Вагнер Фагундез

Описание:
Эта история веселого сверчка музыканта Кристофера, который живет в волшебном лесу и поет веселые песенки под аккомпонимент своих друзей. Но однажды в волшебном лесу появился злой король жаба Вартлорд, который не любил музыку, а любил только есть и спать. И еще он любил жареных сверчков и суп из жучков.
По его инициативе в волшебном лесу стало запрещено петь, веселиться и даже прыгать. Что же делать Кристоферу и его друзьям? Смириться с прихотями злого короля или, объединившись, всем вместе прогнать злодея?



Страна: Бразилия
Продолжительность: 01:20:16
Перевод: Профессиональный (многоголосый, закадровый)

Файл
Качество: DVDRip
Формат файла: AVI
Видео кодек: XviD
Аудио кодек: AC3
Видео: 720x400 (1.80:1), 23.976 fps, XviD build 50 ~2018 kbps avg, 0.29 bit/pixel
Аудио1: Русский: 48 kHz, AC3 Dolby Digital, 3/2 (L,C,R,l,r) + LFE ch, ~384.00 kbps avg
Аудио2: Английский: 48 kHz, AC3 Dolby Digital, 3/2 (L,C,R,l,r) + LFE ch, ~192.00 kbps avg

General
Complete name : C:\Users\X666\Desktop\The Happy Cricke\O_Grilo_Feliz_XviD_DVDRip.avi
Format : AVI
Format/Info : Audio Video Interleave
File size : 1.46 GiB
Duration : 1h 20mn
Overall bit rate : 2 608 Kbps
Movie name : O Grilo Feliz [ripped by domin8]
Genre : Child's
Writing application : VirtualDubMod 1.5.10.3 | http://www.virtualdub-fr.org || (build 2550/release)
Original source form/Name : Cartoon
Video #0
ID : 0
Format : MPEG-4 Visual
Format profile : Advanced Simple@L5
Format settings, BVOP : Yes
Format settings, QPel : No
Format settings, GMC : No warppoints
Format settings, Matrix : Default (H.263)
Codec ID : XVID
Codec ID/Hint : XviD
Duration : 1h 20mn
Bit rate : 2 019 Kbps
Width : 720 pixels
Height : 400 pixels
Display aspect ratio : 16:9
Frame rate : 23.976 fps
Color space : YUV
Chroma subsampling : 4:2:0
Bit depth : 8 bits
Scan type : Progressive
Bits/(Pixel*Frame) : 0.292
Stream size : 1.13 GiB (77%)
Writing library : XviD 1.2.1 (UTC 2008-12-04)
Audio #1
ID : 1
Format : AC-3
Format/Info : Audio Coding 3
Mode extension : CM (complete main)
Codec ID : 2000
Duration : 1h 20mn
Bit rate mode : Constant
Bit rate : 384 Kbps
Channel(s) : 6 channels
Channel positions : Front: L C R, Side: L R, LFE
Sampling rate : 48.0 KHz
Bit depth : 16 bits
Stream size : 220 MiB (15%)
Alignment : Split accross interleaves
Interleave, duration : 42 ms (1.00 video frame)
Interleave, preload duration : 500 ms
Title : rus
Audio #2
ID : 2
Format : AC-3
Format/Info : Audio Coding 3
Mode extension : CM (complete main)
Codec ID : 2000
Duration : 1h 20mn
Bit rate mode : Constant
Bit rate : 192 Kbps
Channel(s) : 6 channels
Channel positions : Front: L C R, Side: L R, LFE
Sampling rate : 48.0 KHz
Bit depth : 16 bits
Stream size : 110 MiB (7%)
Alignment : Split accross interleaves
Interleave, duration : 42 ms (1.00 video frame)
Interleave, preload duration : 500 ms
Title : eng

Релиз от Ripped by


_________________



реклама партнёра


Вернуться к началу
 Профиль Отправить личное сообщение  
 
   Похожие торренты   Автор   Торрент   Размер 
В этой теме нет новых непрочитанных сообщений. Приключения олененка Рудольфа / Rudolph, the Red-Nosed Reindeer [мультфильм, мюзикл, фэнтези, приключения, семейный, 1964] BDRip 1080p, Mvo

salma3

7 | 4

3.62 ГБ

В этой теме нет новых непрочитанных сообщений. Моана / Moana (мультфильм, мюзикл, фэнтези, комедия, приключения, семейный, 2016) TS | D

marya111

1567 | 182

1.37 ГБ

В этой теме нет новых непрочитанных сообщений. По Ту Сторону Изгороди / Over The Garden Wall [01x01-10 из 10] [мультфильм, мюзикл, фэнтези, драма, приключения, 2014] WEB-DLRip, mvo

Dracon

171 | 42

1.43 ГБ

В этой теме нет новых непрочитанных сообщений. Механика сердца / Jack et la mecanique du coeur [мультфильм, мюзикл, фэнтези, драма, мелодрама, приключения, 2013] HDRip, Mvo

Dracon

5 | 3

1.37 ГБ

В этой теме нет новых непрочитанных сообщений. Механика сердца / Jack et la mecanique du coeur [мультфильм, мюзикл, фэнтези, драма, мелодрама, приключения, 2013] BDRip 1080p, Mvo

Dracon

2 | 2

5.77 ГБ

В этой теме нет новых непрочитанных сообщений. Механика сердца / Jack et la mécanique du coeur (Стефан Берла, Матиас Мальзьё) [2013, мультфильм, мюзикл, фэнтези, драма, мелодрама, приключения, HDRip]

Nickolas3435

432 | 6

1.37 ГБ

В этой теме нет новых непрочитанных сообщений. Механика сердца / Jack et la mécanique du coeur (Стефан Берла, Матиас Мальзьё) [мультфильм, мюзикл, фэнтези, драма, мелодрама, приключения, 2013] BDRip 720p, Mvo+Sub

Dracon

212 | 37

2.19 ГБ


Начать новую тему Ответить на тему  [ 1 сообщение ] 




Для Мосгорсуда, Роскомнадзора и рекламодателей:: mosgorsud-torrent[собачка]yandex.ru