Торрент файл
скачать торрент магнет ссылка Добавлен: 30 окт 2014, 10:14
Размер: 3.05 ГБ
Сидеров: 19
Личеров: 4
Автор

СообщениеДобавлено: 30 окт 2014, 10:14 

Не в сети
Зам. Админа
Аватара пользователя
Дата регистрации:
02 дек 2010, 12:39
Спасибо: 12623 / 214
Сообщения: 28012
Год выхода: 2014
Жанр: мультфильм, комедия, приключения
Режиссер: Динг Лианг, Fuyuan Liu
В ролях: Анатолий Сергеев, Дмитрий Хрусталев, Тимур Батрутдинов

О фильме:
Медведям-соседям и вездесущему дровосеку придется стать нянями очутившегося у них в лесу ребенка. Все бы ничего, если бы эта девочка не была до этого похищена и упущена бандитами, которые жаждут ее вернуть и доставить заказчику - главному злодею. Теперь нашим героям предстоит сразиться с плохими парнями и помочь найти дорогу домой малышке.

Качество: WEB-DLRip [720p]
Видео: MPEG-4 AVC, ~4300 Kb/s, 1280x720, 24.000 fps
Аудио: AC3, 384 kb/s (6 ch), 48.0 KHz
Продолжительность: 01:33:15
Перевод: Дублированный [iTunes]
E:с торрентовMedvedi.sosedi.2014.D.WEB-DL.720p.mkv
  General
    Unique ID : 179626828666782092379288318463574707034 (0x8722DE6A9FFA9009A32F33D2A41A8B5A)
    Complete name : E:с торрентовMedvedi.sosedi.2014.D.WEB-DL.720p.mkv
    Format : Matroska
    Format version : Version 4 / Version 2
    File size : 3.05 GiB
    Duration : 1h 33mn
    Overall bit rate : 4 686 Kbps
    Encoded date : UTC 2014-10-29 23:07:32
    Writing application : mkvmerge v7.2.0 ('On Every Street') 64bit built on Sep 13 2014 15:52:10
    Writing library : libebml v1.3.0 + libmatroska v1.4.1
    DURATION : 01:33:15.936000000
    NUMBER_OF_FRAMES : 174873
    NUMBER_OF_BYTES : 268604928
    _STATISTICS_WRITING_APP : mkvmerge v7.2.0 ('On Every Street') 64bit built on Sep 13 2014 15:52:10
    _STATISTICS_WRITING_DATE_UTC : 2014-10-29 23:07:32
    _STATISTICS_TAGS : BPS DURATION NUMBER_OF_FRAMES NUMBER_OF_BYTES
  Video #1
    ID : 1
    Format : AVC
    Format/Info : Advanced Video Codec
    Format profile : High@L3.1
    Format settings, CABAC : Yes
    Format settings, ReFrames : 4 frames
    Codec ID : V_MPEG4/ISO/AVC
    Duration : 1h 33mn
    Bit rate : 4 300 Kbps
    Width : 1 280 pixels
    Height : 720 pixels
    Display aspect ratio : 16:9
    Frame rate mode : Constant
    Frame rate : 24.000 fps
    Color space : YUV
    Chroma subsampling : 4:2:0
    Bit depth : 8 bits
    Scan type : Progressive
    Bits/(Pixel*Frame) : 0.194
    Stream size : 2.74 GiB (90%)
    Writing library : x264 core 130 r2273 b3065e6
    Encoding settings : cabac=1 / ref=1 / deblock=1:0:0 / analyse=0x3:0x113 / me=hex / subme=2 / psy=1 / psy_rd=1.00:0.00 / mixed_ref=0 / me_range=16 / chroma_me=1 / trellis=0 / 8x8dct=1 / cqm=0 / deadzone=21,11 / fast_pskip=1 / chroma_qp_offset=0 / threads=6 / lookahead_threads=2 / sliced_threads=0 / nr=0 / decimate=1 / interlaced=0 / bluray_compat=0 / constrained_intra=0 / bframes=3 / b_pyramid=2 / b_adapt=1 / b_bias=0 / direct=1 / weightb=1 / open_gop=0 / weightp=1 / keyint=250 / keyint_min=23 / scenecut=40 / intra_refresh=0 / rc_lookahead=10 / rc=2pass / mbtree=1 / bitrate=4300 / ratetol=1.0 / qcomp=0.60 / qpmin=0 / qpmax=69 / qpstep=4 / cplxblur=20.0 / qblur=0.5 / ip_ratio=1.40 / aq=1:1.00
    Language : English
    Default : Yes
    Forced : No
    DURATION : 01:33:15.880000000
    NUMBER_OF_FRAMES : 134301
    NUMBER_OF_BYTES : 3007771664
    _STATISTICS_WRITING_APP : mkvmerge v7.2.0 ('On Every Street') 64bit built on Sep 13 2014 15:52:10
    _STATISTICS_WRITING_DATE_UTC : 2014-10-29 23:07:32
    _STATISTICS_TAGS : BPS DURATION NUMBER_OF_FRAMES NUMBER_OF_BYTES
  Audio #2
    ID : 2
    Format : AC-3
    Format/Info : Audio Coding 3
    Mode extension : CM (complete main)
    Format settings, Endianness : Big
    Codec ID : A_AC3
    Duration : 1h 33mn
    Bit rate mode : Constant
    Bit rate : 384 Kbps
    Channel(s) : 6 channels
    Channel positions : Front: L C R, Side: L R, LFE
    Sampling rate : 48.0 KHz
    Bit depth : 16 bits
    Compression mode : Lossy
    Stream size : 256 MiB (8%)
    Language : Russian
    Default : Yes
    Forced : No








реклама партнёра


Вернуться к началу
 Профиль  
 
   Похожие торренты   Автор   Торрент   Размер 
В этой теме нет новых непрочитанных сообщений. Медведи-соседи / Boonie Bears, to the Rescue! [мультфильм, комедия, приключения, 2014] DVD5, Dub [Лицензия]

Dracon

115 | 43

4.21 ГБ

В этой теме нет новых непрочитанных сообщений. Мишки Буни: Тайна цирка / Boonie Bears III [Мультфильм, детский, полнометражный, 2016] WEB-DLRip, Dub [iTunes]

salma3

143 | 29

745.3 МБ

В этой теме нет новых непрочитанных сообщений. Мишки Буни: Тайна цирка / Boonie Bears III [Мультфильм, детский, полнометражный, 2016] WEB-DLRip, Dub [iTunes]

salma3

1403 | 335

1.46 ГБ

В этой теме нет новых непрочитанных сообщений. Мишки Буни: Тайна цирка / Boonie Bears III [мультфильм, 2016] WEB-DL 1080p, Dub [iTunes]

salma3

129 | 21

3.36 ГБ

В этой теме нет новых непрочитанных сообщений. Мы обычные медведи / We Bare Bears / 1 сезон, 0-26 [приключения, комедия, семейный, 2015] WEB-DLRip, Mvo

salma3

5 | 3

3.64 ГБ

В этой теме нет новых непрочитанных сообщений. Несносные медведи / Bad News Bears [комедия, спорт, 2005] WEB-DLRip, Mvo

salma3

114 | 35

1.45 ГБ

В этой теме нет новых непрочитанных сообщений. Три богатыря: Ход конем (Константин Феоктистов) [мультфильм, комедия, приключения, фэнтези, 2014] WEB-DLRip [iTunes]

Dracon

56 | 3

1.36 ГБ


Начать новую тему Ответить на тему  [ 1 сообщение ] 




Для Мосгорсуда, Роскомнадзора и рекламодателей:: mosgorsud-torrent[собачка]yandex.ru