Торрент файл
скачать торрент магнет ссылка Добавлен: 27 окт 2014, 21:48
Размер: 3.88 ГБ
Сидеров: 361
Личеров: 21
Автор

СообщениеДобавлено: 27 окт 2014, 21:48 

Не в сети
Зам. Админа
Аватара пользователя
Дата регистрации:
02 дек 2010, 12:39
Спасибо: 12461 / 214
Сообщения: 27968
Год выхода: 2014
Жанр: мультфильм, детский, семейный
Режиссер: Макото Накамура / Makoto Nakamura
В ролях: Лариса Брохман, Владимир Ферапонтов, Ольга Зверева, Дмитрий Филимонов, Александр Пожаров, Александр Груздев, Ольга Шорохова, Гарри Бардин, Владимир Орёл, Антон Морозов

О фильме:
Мультфильм из трех историй: «Чебурашка и цирк», «Чебурашка идет в зоопарк» и «Советы Шапокляк». Прологом служит история о появлении Чебурашки в ящике из-под апельсинов, его знакомстве с крокодилом Геной и обретении друзей.
«Чебурашка и цирк» — история о дружбе и мечте. Гена и Чебурашка помогают девочке Маше научиться ходить по канату и осуществляют ее заветное желание — выступать в цирке. В серии «Чебурашка идет в зоопарк» Гена заболел, и Чебурашка отправился вместо него «работать крокодилом» в зоопарке. Возникает веселая путаница. Заключительная история — «Советы Шапокляк». Герои приходят на помощь фокуснику, потерявшему внучку. А Шапокляк открывает бюро платных бесполезных советов.





Страна: Япония, Россия
Студия: Ffango Entertoyment
Продолжительность: 01:16:05
Перевод: Оригинал [Лицензия]

Кодек: MPEG2
Качество: DVD5 R5
Видео: PAL 16:9 (720x576(0.670)) MPEG Video, 25,000 кадр/сек, 6951 Кбит/сек
Звук: Russian (Dolby AC3, 2 ch) 192 Кбит/сек, 48,0 КГц
Субтитры: нет
Title: Cheburashka.2013.DVD5
Size: 3.88 Gb ( 4 064 290,00 KBytes ) - DVD-5
Enabled regions: 1, 2, 3, 4, 5, 6, 7, 8

VTS_01 :
Play Length: 00:00:16+01:15:49
Video: PAL 16:9 (720x576) VBR, Auto Letterboxed
Audio:
Russian (Dolby AC3, 2 ch)

* Menus Information *

VIDEO_TS Menu
Video:
NTSC 4:3 (720x480) VBR
Auto Pan&Scan, Auto Letterboxed
Russian Language Unit :
Title Menu

VTS_01 Menu
Video:
PAL 16:9 (720x576) VBR
Auto Letterboxed
Audio:
Not specified (Dolby AC3, 2 ch)
Russian Language Unit :
Root Menu
Chapter (PTT) Menu
Общее
Полное имя : F:Новинки 2014Cheburashka.2013.DVD5VIDEO_TSVTS_01_2.VOB
Формат : MPEG-PS
Размер файла : 1024 Мбайт
Продолжительность : 19 м.
Режим общего битрейта : Переменный
Общий поток : 7288 Кбит/сек

Видео
Идентификатор : 224 (0xE0)
Формат : MPEG Video
Версия формата : Version 2
Профиль формата : Main@Main
Параметр BVOP формата : Да
Параметр матрицы формата : Выборочная
Параметр GOP формата : M=3, N=15
Продолжительность : 19 м.
Вид битрейта : Переменный
Битрейт : 6951 Кбит/сек
Максимальный битрейт : 8500 Кбит/сек
Ширина : 720 пикселей
Высота : 576 пикселей
Соотношение сторон : 16:9
Частота кадров : 25,000 кадров/сек
Стандарт вещания : PAL
Цветовое пространство : YUV
Субдискретизация насыщенности : 4:2:0
Битовая глубина : 8 бит
Тип развёртки : Прогрессивная
Метод сжатия : С потерями
Бит/(Пиксели*Кадры) : 0.670
Временной код первого кадра : 00:20:43:17
Оригинал временного кода : Group of pictures header
Размер потока : 976 Мбайт (95%)

Аудио
Идентификатор : 189 (0xBD)-128 (0x80)
Формат : AC-3
Формат/Информация : Audio Coding 3
Расширение режима : CM (complete main)
Параметр Endianness формата : Big
Режим смешивания : DVD-Video
Продолжительность : 19 м.
Вид битрейта : Постоянный
Битрейт : 192 Кбит/сек
Каналы : 2 канала
Расположение каналов : Front: L R
Частота : 48,0 КГц
Битовая глубина : 16 бит
Метод сжатия : С потерями
Задержка видео : -368 мс.
Размер потока : 27,0 Мбайт (3%)






реклама партнёра


Вернуться к началу
 Профиль  
 
   Похожие торренты   Автор   Торрент   Размер 
В этой теме нет новых непрочитанных сообщений. Чебурашка / Cheburashka [Мультфильм, детский, семейный, 2014] WEBRip

Dracon

250 | 7

697.83 МБ

В этой теме нет новых непрочитанных сообщений. Чебурашка / Cheburashka [Мультфильм, детский, семейный, 2014] WEBRip 720p

Dracon

1253 | 14

1.99 ГБ

В этой теме нет новых непрочитанных сообщений. Олли и сокровища пиратов / Dive Olly Dive and the Pirate Treasure [мультфильм, семейный, детский, 2014] DVD5, Dub [лицензия]

Dracon

48 | 31

3.27 ГБ

В этой теме нет новых непрочитанных сообщений. Дневник мамы первоклассника [детский, мелодрама, семейный, 2014] DVD5 [Лицензия]

Dracon

153 | 15

4.09 ГБ

В этой теме нет новых непрочитанных сообщений. Олли и сокровища пиратов / Dive Olly Dive and the Pirate Treasure [мультфильм, семейный, детский, 2014] DVDRip, Dub [лицензия]

Dracon

767 | 24

1.46 ГБ

В этой теме нет новых непрочитанных сообщений. Феи: Коллекция / Tinker Bell: Collection (Брэдли Рэймонд, Роберт Ганнавей, Пегги Холмс) [2008-2014, Мультфильм, фэнтези, приключения, семейный, детский, полнометражный, BDRip | Лицензия]

Nickolas3435

271 | 82

8.66 ГБ

В этой теме нет новых непрочитанных сообщений. Реальная белка / The Nut Job [мультфильм, комедия, приключения, семейный, 2014] DVD5, Dub [Лицензия]

Dracon

28 | 3

4.2 ГБ


Начать новую тему Ответить на тему  [ 1 сообщение ] 




Для Мосгорсуда, Роскомнадзора и рекламодателей:: mosgorsud-torrent[собачка]yandex.ru