Торрент файл
скачать торрент магнет ссылка Добавлен: 18 окт 2014, 11:52
Размер: 9.68 ГБ
Сидеров: 342
Личеров: 10
Статус: (PriZraK)
Автор

СообщениеДобавлено: 18 окт 2014, 11:52 

Не в сети
Зам. Админа
Аватара пользователя
Дата регистрации:
02 дек 2010, 12:39
Спасибо: 12460 / 214
Сообщения: 27968
Год выпуска: 2014
Жанр: Мультфильм, фэнтези, комедия, приключения, семейный
Выпущено: США, DreamWorks Animation, Mad Hatter Entertainment
Режиссер: Дин ДеБлуа
В ролях: Джей Барушель, Джона Хилл, Кейт Бланшетт, Джерард Батлер, Джимон Хонсу, Кристофер Минц-Плассе, Кристен Уиг, Кит Харингтон, Америка Феррера, ТиДжей Миллер, Крэйг Фергюсон
О фильме: С момента примирения викингов и драконов прошло пять лет. Пока Астрид, Сморкала и остальные ребята проводят время соревнуясь друг с другом в популярных на острове драконьих гонках, Иккинг и Беззубик путешествуют по небу, составляя карту неизвестных мест. Когда одно из их приключений приводит к открытию тайной ледяной пещеры, которая является домом для сотен ранее невиданных диких драконов и таинственного драконьего всадника, два друга оказываются в центре битвы за защиту мира.


Качество: BDRip (1080p)
Видео: MPEG-4 AVC, 8888 Кбит/с, 1920x816, 23.976 кадр/с
Аудио: Русский (AC3, 6 ch, 640 Кбит/с), (DTS, 6 ch, 768 Кбит/с), латышский, литовский, эстонский, украинский (AC3, 6 ch, 448 Кбит/с), английский (DTS, 6 ch, 1509 Кбит/с)
Размер: 9.68 ГБ
Продолжительность: 01:41:55
Перевод: Дублированный
Субтитры: Русские, латышские, литовские, эстонские, украинские, английские
Сохранены оригинальные чаптеры как на Blu-Ray.

x264 [info]: frame I:1083 Avg QP:13.17 size:250652
x264 [info]: frame P:47815 Avg QP:16.69 size: 79785
x264 [info]: frame B:97718 Avg QP:19.31 size: 27705
x264 [info]: consecutive B-frames: 7.2% 7.5% 33.8% 27.1% 12.0% 11.1% 0.8% 0.2% 0.2% 0.2%
x264 [info]: mb I I16..4: 11.1% 58.0% 30.9%
x264 [info]: mb P I16..4: 5.3% 27.1% 5.3% P16..4: 25.9% 21.8% 7.5% 3.3% 0.9% skip: 3.1%
x264 [info]: mb B I16..4: 1.5% 6.0% 1.1% B16..8: 32.8% 17.0% 2.5% direct: 5.4% skip:33.7% L0:39.1% L1:45.2% BI:15.7%
x264 [info]: 8x8 transform intra:70.7% inter:48.9%
x264 [info]: direct mvs spatial:95.0% temporal:5.0%
x264 [info]: coded y,uvDC,uvAC intra: 72.1% 70.5% 47.7% inter: 22.3% 22.7% 11.6%
x264 [info]: i16 v,h,dc,p: 21% 21% 8% 50%
x264 [info]: i8 v,h,dc,ddl,ddr,vr,hd,vl,hu: 9% 12% 13% 8% 10% 10% 12% 11% 14%
x264 [info]: i4 v,h,dc,ddl,ddr,vr,hd,vl,hu: 11% 12% 20% 7% 12% 10% 11% 8% 10%
x264 [info]: i8c dc,h,v,p: 38% 30% 19% 13%
x264 [info]: Weighted P-Frames: Y:1.6% UV:1.1%
x264 [info]: ref P L0: 61.4% 8.1% 16.7% 6.4% 5.5% 1.9% 0.0%
x264 [info]: ref B L0: 82.8% 12.2% 3.9% 1.1%
x264 [info]: ref B L1: 92.9% 7.1%
x264 [info]: kb/s:8887.69
Общее
Уникальный идентификатор : 180305108095123177724470509540515409399 (0x87A5802C9B33DBEB8A172996F04A6DF7)
Полное имя : D:ЗагрузкиHow.To.Train.Your.Dragon.2014.x264.BDRip.(1080p).ExKinoRay.mkv
Формат : Matroska
Версия формата : Version 2
Размер файла : 9,68 Гбайт
Продолжительность : 1 ч. 41 м.
Общий поток : 13,6 Мбит/сек
Название фильма : Как приручить дракона II.2014.Rip by: ollan
Дата кодирования : UTC 2014-10-18 06:38:14
Программа кодирования : mkvmerge v5.6.0 ('Kenya Kane') built on May 27 2012 16:44:04
Библиотека кодирования : libebml v1.2.3 + libmatroska v1.3.0

Видео
Идентификатор : 1
Формат : AVC
Формат/Информация : Advanced Video Codec
Профиль формата : High@L4.1
Параметр CABAC формата : Да
Параметр ReFrames формата : 5 кадров
Идентификатор кодека : V_MPEG4/ISO/AVC
Продолжительность : 1 ч. 41 м.
Битрейт : 8888 Кбит/сек
Ширина : 1920 пикселей
Высота : 816 пикселей
Соотношение сторон : 2,35:1
Режим частоты кадров : Постоянный
Частота кадров : 23,976 кадра/сек
Цветовое пространство : YUV
Субдискретизация насыщенности : 4:2:0
Битовая глубина : 8 бит
Тип развёртки : Прогрессивная
Бит/(Пиксели*Кадры) : 0.237
Размер потока : 6,14 Гбайт (63%)
Библиотека кодирования : x264 core 125 r2200 999b753
Настройки программы : cabac=1 / ref=5 / deblock=1:-3:-3 / analyse=0x3:0x133 / me=umh / subme=11 / psy=1 / psy_rd=1.00:0.10 / mixed_ref=1 / me_range=32 / chroma_me=1 / trellis=2 / 8x8dct=1 / cqm=0 / deadzone=21,11 / fast_pskip=0 / chroma_qp_offset=-3 / threads=12 / lookahead_threads=2 / sliced_threads=0 / nr=0 / decimate=0 / interlaced=0 / bluray_compat=0 / constrained_intra=0 / bframes=9 / b_pyramid=2 / b_adapt=2 / b_bias=0 / direct=3 / weightb=1 / open_gop=0 / weightp=2 / keyint=240 / keyint_min=23 / scenecut=40 / intra_refresh=0 / rc_lookahead=60 / rc=2pass / mbtree=1 / bitrate=8888 / ratetol=1.0 / qcomp=0.60 / qpmin=0 / qpmax=69 / qpstep=4 / cplxblur=20.0 / qblur=0.5 / ip_ratio=1.40 / aq=1:1.00
Язык : English
Default : Да
Forced : Нет

Аудио #1
Идентификатор : 2
Формат : AC-3
Формат/Информация : Audio Coding 3
Расширение режима : CM (complete main)
Параметр Endianness формата : Big
Идентификатор кодека : A_AC3
Продолжительность : 1 ч. 41 м.
Вид битрейта : Постоянный
Битрейт : 640 Кбит/сек
Каналы : 6 каналов
Расположение каналов : Front: L C R, Side: L R, LFE
Частота : 48,0 КГц
Битовая глубина : 16 бит
Метод сжатия : С потерями
Размер потока : 467 Мбайт (5%)
Заголовок : Дублированный
Язык : Russian
Default : Да
Forced : Нет

Аудио #2
Идентификатор : 3
Формат : DTS
Формат/Информация : Digital Theater Systems
Режим : 16
Параметр Endianness формата : Big
Идентификатор кодека : A_DTS
Продолжительность : 1 ч. 41 м.
Вид битрейта : Постоянный
Битрейт : 768 Кбит/сек
Каналы : 6 каналов
Расположение каналов : Front: L C R, Side: L R, LFE
Частота : 48,0 КГц
Битовая глубина : 24 бит
Метод сжатия : С потерями
Размер потока : 560 Мбайт (6%)
Заголовок : Дублированный
Язык : Russian
Default : Нет
Forced : Нет

Аудио #3
Идентификатор : 4
Формат : AC-3
Формат/Информация : Audio Coding 3
Расширение режима : CM (complete main)
Параметр Endianness формата : Big
Идентификатор кодека : A_AC3
Продолжительность : 1 ч. 41 м.
Вид битрейта : Постоянный
Битрейт : 448 Кбит/сек
Каналы : 6 каналов
Расположение каналов : Front: L C R, Side: L R, LFE
Частота : 48,0 КГц
Битовая глубина : 16 бит
Метод сжатия : С потерями
Размер потока : 327 Мбайт (3%)
Заголовок : Дублированный
Язык : Latvian
Default : Нет
Forced : Нет

Аудио #4
Идентификатор : 5
Формат : AC-3
Формат/Информация : Audio Coding 3
Расширение режима : CM (complete main)
Параметр Endianness формата : Big
Идентификатор кодека : A_AC3
Продолжительность : 1 ч. 41 м.
Вид битрейта : Постоянный
Битрейт : 448 Кбит/сек
Каналы : 6 каналов
Расположение каналов : Front: L C R, Side: L R, LFE
Частота : 48,0 КГц
Битовая глубина : 16 бит
Метод сжатия : С потерями
Размер потока : 327 Мбайт (3%)
Заголовок : Дублированный
Язык : Lithuanian
Default : Нет
Forced : Нет

Аудио #5
Идентификатор : 6
Формат : AC-3
Формат/Информация : Audio Coding 3
Расширение режима : CM (complete main)
Параметр Endianness формата : Big
Идентификатор кодека : A_AC3
Продолжительность : 1 ч. 41 м.
Вид битрейта : Постоянный
Битрейт : 448 Кбит/сек
Каналы : 6 каналов
Расположение каналов : Front: L C R, Side: L R, LFE
Частота : 48,0 КГц
Битовая глубина : 16 бит
Метод сжатия : С потерями
Размер потока : 327 Мбайт (3%)
Заголовок : Дублированный
Язык : Estonian
Default : Нет
Forced : Нет

Аудио #6
Идентификатор : 7
Формат : AC-3
Формат/Информация : Audio Coding 3
Расширение режима : CM (complete main)
Параметр Endianness формата : Big
Идентификатор кодека : A_AC3
Продолжительность : 1 ч. 41 м.
Вид битрейта : Постоянный
Битрейт : 448 Кбит/сек
Каналы : 6 каналов
Расположение каналов : Front: L C R, Side: L R, LFE
Частота : 48,0 КГц
Битовая глубина : 16 бит
Метод сжатия : С потерями
Размер потока : 327 Мбайт (3%)
Заголовок : Дублированный
Язык : Ukrainian
Default : Нет
Forced : Нет

Аудио #7
Идентификатор : 8
Формат : DTS
Формат/Информация : Digital Theater Systems
Профиль формата : ES
Режим : 16
Параметр Endianness формата : Big
Идентификатор кодека : A_DTS
Продолжительность : 1 ч. 41 м.
Вид битрейта : Постоянный
Битрейт : 1509 Кбит/сек
Каналы : 6 каналов
Расположение каналов : Front: L C R, Side: L R, LFE
Частота : 48,0 КГц
Битовая глубина : 24 бит
Метод сжатия : С потерями
Размер потока : 1,07 Гбайт (11%)
Язык : English
Default : Нет
Forced : Нет

Текст #1
Идентификатор : 9
Формат : UTF-8
Идентификатор кодека : S_TEXT/UTF8
Идентификатор кодека/Информация : UTF-8 Plain Text
Заголовок : Full
Язык : Russian
Default : Нет
Forced : Нет

Текст #2
Идентификатор : 10
Формат : UTF-8
Идентификатор кодека : S_TEXT/UTF8
Идентификатор кодека/Информация : UTF-8 Plain Text
Заголовок : Full
Язык : Latvian
Default : Нет
Forced : Нет

Текст #3
Идентификатор : 11
Формат : UTF-8
Идентификатор кодека : S_TEXT/UTF8
Идентификатор кодека/Информация : UTF-8 Plain Text
Заголовок : Full
Язык : Lithuanian
Default : Нет
Forced : Нет

Текст #4
Идентификатор : 12
Формат : UTF-8
Идентификатор кодека : S_TEXT/UTF8
Идентификатор кодека/Информация : UTF-8 Plain Text
Заголовок : Full
Язык : Estonian
Default : Нет
Forced : Нет

Текст #5
Идентификатор : 13
Формат : UTF-8
Идентификатор кодека : S_TEXT/UTF8
Идентификатор кодека/Информация : UTF-8 Plain Text
Заголовок : Full
Язык : Ukrainian
Default : Нет
Forced : Нет

Текст #6
Идентификатор : 14
Формат : UTF-8
Идентификатор кодека : S_TEXT/UTF8
Идентификатор кодека/Информация : UTF-8 Plain Text
Заголовок : Full
Язык : English
Default : Нет
Forced : Нет

Меню
00:00:00.000 : en:Chapter 01
00:03:27.999 : en:Chapter 02
00:05:20.695 : en:Chapter 03
00:07:46.007 : en:Chapter 04
00:10:16.032 : en:Chapter 05
00:13:16.337 : en:Chapter 06
00:16:59.059 : en:Chapter 07
00:20:01.700 : en:Chapter 08
00:23:43.255 : en:Chapter 09
00:27:14.466 : en:Chapter 10
00:29:21.468 : en:Chapter 11
00:33:41.936 : en:Chapter 12
00:37:05.473 : en:Chapter 13
00:39:06.969 : en:Chapter 14
00:40:59.165 : en:Chapter 15
00:45:03.992 : en:Chapter 16
00:47:16.625 : en:Chapter 17
00:51:51.525 : en:Chapter 18
00:54:35.730 : en:Chapter 19
00:56:15.997 : en:Chapter 20
01:00:33.171 : en:Chapter 21
01:04:28.781 : en:Chapter 22
01:06:34.949 : en:Chapter 23
01:09:44.138 : en:Chapter 24
01:14:01.854 : en:Chapter 25
01:18:35.127 : en:Chapter 26
01:21:07.153 : en:Chapter 27
01:22:55.053 : en:Chapter 28
01:24:30.065 : en:Chapter 29
01:28:04.654 : en:Chapter 30
01:31:03.499 : en:Chapter 31
01:32:21.994 : en:Chapter 32
01:41:54.858 : en:Chapter 33








реклама партнёра


Вернуться к началу
 Профиль  
 
   Похожие торренты   Автор   Торрент   Размер 
В этой теме нет новых непрочитанных сообщений. Как приручить дракона 2 / How to Train Your Dragon 2 (Дин ДеБлуа) [мультфильм, фэнтези, комедия, приключения, семейный, 2014] BDRip 1080p, Dub+Sub [лицензия | 3D Video]

Dracon

658 | 16

7.44 ГБ

В этой теме нет новых непрочитанных сообщений. Как приручить дракона 2 / How to Train Your Dragon 2 [мультфильм, фэнтези, комедия, приключения, семейный, 2014] Blu-Ray 1080p, Dub+Sub [лицензия]

Dracon

29 | 3

37.53 ГБ

В этой теме нет новых непрочитанных сообщений. Как приручить дракона 2 / How to Train Your Dragon 2 [мультфильм, фэнтези, комедия, приключения, семейный, 2014] BDRemux 1080p, Dub+Sub [Лицензия]

Dracon

4 | 2

21.18 ГБ

В этой теме нет новых непрочитанных сообщений. Как приручить дракона 2 / How to Train Your Dragon 2 [мультфильм, фэнтези, комедия, приключения, семейный, 2014] Blu-Ray 1080p, Dub+Sub [лицензия | 3D Video]

Dracon

26 | 6

38.48 ГБ

В этой теме нет новых непрочитанных сообщений. Как приручить дракона 2 / How to Train Your Dragon 2 [мультфильм, фэнтези, комедия, приключения, семейный, 2014] BDRip 720p, Dub+Sub [лицензия]

Dracon

1206 | 30

4.37 ГБ

В этой теме нет новых непрочитанных сообщений. Как приручить дракона 2 / How to Train Your Dragon 2 [мультфильм, фэнтези, комедия, приключения, семейный, 2014] HDRip, Dub [лицензия]

Dracon

248 | 9

1.37 ГБ

В этой теме нет новых непрочитанных сообщений. Как приручить дракона 2 / How to Train Your Dragon 2 [мультфильм, фэнтези, комедия, приключения, семейный, 2014] DVD9, Dub+Sub [лицензия]

Dracon

49 | 2

7.54 ГБ


Начать новую тему Ответить на тему  [ 1 сообщение ] 




Для Мосгорсуда, Роскомнадзора и рекламодателей:: mosgorsud-torrent[собачка]yandex.ru