Торрент файл
скачать торрент магнет ссылка Добавлен: 30 сен 2014, 10:06
Размер: 1.37 ГБ
Сидеров: 831
Личеров: 15
Автор

СообщениеДобавлено: 30 сен 2014, 10:06 

Не в сети
Зам. Админа
Аватара пользователя
Дата регистрации:
02 дек 2010, 12:39
Спасибо: 12461 / 214
Сообщения: 27968
Год выхода: 2014
Жанр: Мультфильм, комедия, семейный
Режиссёр: Майкл Д’Иса-Хоган
В ролях: Джим Бродбент, Джейн Карр, Робин Аткин Даунс, Сьюзэн Дюрден, Грег Эллис, Руперт Гринт, Дэн Хилдебранд, Ронан Китинг, Стивен Мэнгэн, Парминдер К. Награ

О фильме:
Сколько нужно почтальонов для спасения мира? Достаточно одного, если он работает в паре с любопытным котом, готовым к любым приключениям.



Страна: Великобритания, США
Студия: Classic Media, RGH Entertainment, Rubicon Group Holding
Продолжительность: 01:27:51
Перевод: Дублированный [Чистый звук]
Оригинальная аудио-дорожка: Нет

Кодек: XviD
Качество: HDRip
Видео: XviD, 720x384 (1.875), 2025 Кбит/с, 23,976 кадр/с
Аудио: Русский, Dolby AC3, 48000 Гц, 192 Кбит/с, 2 канала (Стерео) - Dub (Line)
Субтитры: Нет



General
Complete name : Po4taljon.Pet.2014.D.HDRip.avi
Format : AVI
Format/Info : Audio Video Interleave
File size : 1.37 GiB
Duration : 1h 27mn
Overall bit rate : 2 226 Kbps
Writing application : VirtualDubMod 1.5.10.2 (build 2540/release)
Writing library : VirtualDubMod build 2540/release

Video
ID : 0
Format : MPEG-4 Visual
Format profile : Advanced Simple@L5
Format settings, BVOP : 2
Format settings, QPel : No
Format settings, GMC : No warppoints
Format settings, Matrix : Default (MPEG)
Codec ID : XVID
Codec ID/Hint : XviD
Duration : 1h 27mn
Bit rate : 2 025 Kbps
Width : 720 pixels
Height : 384 pixels
Display aspect ratio : 1.875
Frame rate : 23.976 fps
Color space : YUV
Chroma subsampling : 4:2:0
Bit depth : 8 bits
Scan type : Progressive
Compression mode : Lossy
Bits/(Pixel*Frame) : 0.305
Stream size : 1.24 GiB (91%)
Writing library : XviD 1.2.1 (UTC 2008-12-04)

Audio
ID : 1
Format : AC-3
Format/Info : Audio Coding 3
Mode extension : CM (complete main)
Codec ID : 2000
Duration : 1h 27mn
Bit rate mode : Constant
Bit rate : 192 Kbps
Channel(s) : 2 channels
Channel positions : Front: L R
Sampling rate : 48.0 KHz
Bit depth : 16 bits
Compression mode : Lossy
Stream size : 121 MiB (9%)
Alignment : Split accross interleaves
Interleave, duration : 42 ms (1.00 video frame)
Interleave, preload duration : 500 ms




реклама партнёра


Вернуться к началу
 Профиль  
 
   Похожие торренты   Автор   Торрент   Размер 
В этой теме нет новых непрочитанных сообщений. Почтальон Пэт / Postman Pat: The Movie [Мультфильм, Комедия, семейный, 2014] BDRip 1080p, Dub [Лицензия | 3D-Video]

Dracon

57 | 3

4.89 ГБ

В этой теме нет новых непрочитанных сообщений. Почтальон Пэт / Postman Pat: The Movie [Мультфильм, 2014] DVD5, Dub [Лицензия]

Dracon

34 | 15

4.32 ГБ

В этой теме нет новых непрочитанных сообщений. Рио 2 / Rio 2 [Мультфильм, комедия, приключения, семейный, 2014] HDRip, dub [Чистый звук]

Dracon

1933 | 19

1.37 ГБ

В этой теме нет новых непрочитанных сообщений. Реальная белка / The Nut Job [мультфильм, комедия, приключения, семейный, 2014] HDRip, dub [Чистый звук]

Dracon

1201 | 7

1.37 ГБ

В этой теме нет новых непрочитанных сообщений. Губка Боб в 3D / The SpongeBob Movie: Sponge Out of Water (Пол Тиббит) [мультфильм, комедия, приключения, семейный, 2015] WEBRip, dub [Чистый звук]

Dracon

1 | 0

1.38 ГБ

В этой теме нет новых непрочитанных сообщений. Губка Боб в 3D / The SpongeBob Movie: Sponge Out of Water (Пол Тиббит) [мультфильм, комедия, приключения, семейный, 2015] WEBRip, dub [Чистый звук]

Dracon

1 | 0

703.58 МБ

В этой теме нет новых непрочитанных сообщений. Город героев /  Big Hero 6 (Дон Холл, Крис Уильямс) [мультфильм, фантастика, комедия, семейный, боевик, 2014] HDRip, dub [Чистый звук]

Dracon

3 | 2

697.71 МБ


Начать новую тему Ответить на тему  [ 1 сообщение ] 




Для Мосгорсуда, Роскомнадзора и рекламодателей:: mosgorsud-torrent[собачка]yandex.ru