Торрент файл
скачать торрент магнет ссылка Добавлен: 13 сен 2014, 23:42
Размер: 744.79 МБ
Сидеров: 443
Личеров: 14
Автор

СообщениеДобавлено: 13 сен 2014, 23:42 

Не в сети
Супермодератор
Аватара пользователя
Дата регистрации:
06 июн 2014, 07:51
Спасибо: 577 / 0
Сообщения: 2002
Информация:
Страна: США / Turner Entertainment Co., Warner Brothers Animation
Жанр: мультфильм, комедия
Год выпуска: 2014
Продолжительность: 00:54:22
Перевод: Профессиональный (многоголосый закадровый)
Cубтитры: нет
Оригинальная аудиодорожка: нет
Режиссер: Тони Червоне / Tony Cervone
В ролях: Келли Стейблз, Викки Льюис, Джим Каммингс, Лорейн Ньюмен, Уэйн Найт
Описание: Всеми любимая парочка — кот и мышь - вернулись в этой волшебной сказке! А вместе с ними — и песни, веселье и магия. Приключение наших героев начинается с того, что они находят странное яйцо, которое было украдено у огромного огнедышащего дракона! Вскоре из яйца вылупляется малыш Паффи и решает, что Том — это его мама. Настоящая мама-дракониха хочет вернуть своего драконёнка, но не она одна — за малышом охотится ведьма Дризельда! С помощью волшебных союзников и зверей Тому и Джерри предстоит остановить ведьму и вернуть детёныша его маме. Вас ждёт магия, сражения и, конечно же, море веселья! Смогут ли друзья помочь героям этой сказки, будет ли у неё счастливый финал? Отправьтесь в это увлекательное путешествие всей семьёй и сами узнаете!

Качество: DVDRip / DVD5 R5 от СР Дистрибуция
Формат: AVI
Видео: 720x400, XviD 1714 kbps / 25 fps / 16:9 / 0.238 bit/pix
Аудио: Russian: 48 kHz, AC3, 2/0 ch, 192.00 kbps

Общее
Полное имя : Tom.i.Djerri.Poteryannyi.Drakon.2014.P.DVDRip_[New-Team]_by_avproh.avi
Формат : AVI
Формат/Информация : Audio Video Interleave
Размер файла : 745 Мбайт
Продолжительность : 54 м.
Общий поток : 1915 Кбит/сек
Программа кодирования : VirtualDubModRus 1.5.10.2 (build 2542/release)
Библиотека кодирования : VirtualDubMod build 2542/release
Видео
Идентификатор : 0
Формат : MPEG-4 Visual
Профиль формата : Advanced Simple@L5
Параметр BVOP формата : 1
Параметр QPel формата : Нет
Параметр GMC формата : Без точки перехода
Параметр матрицы формата : Выборочная
Идентификатор кодека : XVID
Идентификатор кодека/Подсказка : XviD
Продолжительность : 54 м.
Битрейт : 1714 Кбит/сек
Ширина : 720 пикселей
Высота : 400 пикселей
Соотношение сторон : 16:9
Частота кадров : 25,000 кадров/сек
Цветовое пространство : YUV
Субдискретизация насыщенности : 4:2:0
Битовая глубина : 8 бит
Тип развёртки : Прогрессивная
Метод сжатия : С потерями
Бит/(Пиксели*Кадры) : 0.238
Размер потока : 666 Мбайт (89%)
Библиотека кодирования : XviD 73
Аудио
Идентификатор : 1
Формат : AC-3
Формат/Информация : Audio Coding 3
Расширение режима : CM (complete main)
Параметр Endianness формата : Big
Идентификатор кодека : 2000
Продолжительность : 54 м.
Вид битрейта : Постоянный
Битрейт : 192 Кбит/сек
Каналы : 2 канала
Расположение каналов : Front: L R
Частота : 48,0 КГц
Битовая глубина : 16 бит
Метод сжатия : С потерями
Размер потока : 74,7 Мбайт (10%)
Выравнивание : Разделение по промежуткам
Продолжительность промежутка : 40 мс. (1,00 видеокадр)
Время предзагрузки промежутка : 500 мс.





реклама партнёра


Вернуться к началу
 Профиль Отправить личное сообщение  
 
   Похожие торренты   Автор   Торрент   Размер 
В этой теме нет новых непрочитанных сообщений. Том и Джерри: Потерянный дракон / Tom & Jerry: The Lost Dragon [мультфильм, комедия, 2014] DVDRip, Mvo+Sub [лицензия]

Dracon

194 | 7

1.23 ГБ

В этой теме нет новых непрочитанных сообщений. Том и Джерри: Потерянный дракон / Tom & Jerry: The Lost Dragon [мультфильм, комедия, 2014] DVD5, Mvo+Sub [лицензия]

Dracon

37 | 6

3.74 ГБ

В этой теме нет новых непрочитанных сообщений. Том и Джерри: Потерянный дракон / Tom & Jerry: The Lost Dragon [Мультфильм, 2014] DVDRip, Avo

salma3

430 | 7

751.64 МБ

В этой теме нет новых непрочитанных сообщений. Том и Джерри: Шпион Квест / Tom and Jerry: Spy Quest (Спайк Брандт, Тони Червоне) [мультфильм, 2015] WEB-DLRip, Mvo [iTunes]

Dracon

62 | 1

1.37 ГБ

В этой теме нет новых непрочитанных сообщений. Том и Джерри: Шпион Квест / Tom and Jerry: Spy Quest (Спайк Брандт, Тони Червоне) [мультфильм, 2015] WEB-DL 1080p, Mvo [iTunes]

Dracon

29 | 1

3.08 ГБ

В этой теме нет новых непрочитанных сообщений. Том и Джерри: Большие гонки / Tom and Jerry's Greatest Chases [01 - 70 из 70] [мультфильм, комедия, семейный, 1941-1958] DVDRip-AVC, Mvo+Sub [лицензия]

salma3

30 | 2

7.7 ГБ

В этой теме нет новых непрочитанных сообщений. Том и Джерри: Большие гонки / Tom and Jerry's Greatest Chases [01 - 70 из 70] [мультфильм, комедия, семейный, 1941-1958] DVDRip, Mvo+Sub [лицензия]

salma3

18 | 12

7.61 ГБ


Начать новую тему Ответить на тему  [ 1 сообщение ] 




Для Мосгорсуда, Роскомнадзора и рекламодателей:: mosgorsud-torrent[собачка]yandex.ru