Торрент файл
скачать торрент магнет ссылка Добавлен: 03 сен 2014, 20:56
Размер: 28.23 ГБ
Сидеров: 4
Личеров: 5
Автор

СообщениеДобавлено: 03 сен 2014, 20:57 

Не в сети
Аватара пользователя
Дата регистрации:
09 авг 2014, 12:07
Спасибо: 49 / 1
Сообщения: 156
Откуда: КРАСНОГОРСК
Совершенный Человек-Паук / Ultimate Spider-Man



Год выпуска: 2012-2013
Выпущено: США, Man of Action Studios, Marvel Animation
Жанр: Мультсериал, фантастика, боевик, комедия
Продолжительность: 00:22:00
Сезон: 1-2
Серии: 1-52
Количество серий в сезонах: 52
Озвучка 1 Сезон:Дубляж [Disney_Channel]
Озвучка 2 Сезон :Профессиональная многоголосая закадровая[SerGoLeOne]
Субтитры: НЕТ

Режиссер: Тим Элдред, Алекс Сото



Новый мультсериал о Человеке-пауке, являющийся переделкой основной серии мультфильмов. Теперь главный герой Питер Паркер превратился из наивного и отчаянного подростка в настоящего героя, который примирился со своим происхождением и способностями. Новые серии покажут уникальное путешествие, в процессе которого мы увидим, как наш любимый стенолаз объединяется с другими супергероями Марвел в никогда ранее не виденных сюжетах о новой жизни, полной сложных задач и новых друзей. В один прекрасный день Ник Фьюри приходит к пауку и предлагает ему обучаться по его технике. Согласился ли он? Сами посмотрите!

Качество : WEB-DLRip-AVC 720p
Формат: MPEG-4
Видео кодек: H264
Видео: 3101Кбит/сек,1280х720(16.9),в 25.000кадр/сек,AVC(Baseline@L4.2)(1Ref Frames)
Аудио кодек: AAC
Аудио Russian Dolby Digital 5.1:456Кбит/сек,44.1КГц,6каналов,AAC,(Version4)(LC)

Звуковая дорожка сделана путем наложения чистого голоса озвучивателей на центральный канал оригинальной дорожки. Качество идентично звуковой дорожке.


1 Сезон
01. Великая держава / Great Power
02. Большая ответственность / Great Responsibility
03. Доктор ДУМ / Doomed
04. Веном / Venom
05. Полет железного паука / Flight of the Iron Spider
06. Почему я ненавижу тренажерный зал / Why I Hates the Gym
07. Эксклюзивный / Exclusive
08. Вернуться назад / Back in Black
09. Экскурсия / Field Trip
10. Причудливый / Freaky
11. Веномус / Venomous
12. Личное время / Me Time
13. Стрендж / Strange
14. В ажуре / Awesome
15. Только ради вашего глаза / For Your Eye Onl
16. Жукомания / Beetle Mania
17. Снежный день / Snow Day
18. Погром / Damage
19. Неприкаянный Халк / Home Sick Hulk
20. Беги, хряк, беги / Run Pig Run
21. Я-Человек-Паук / I Am Spider-Man
22. Железный Осьминог / The Iron Octopus
23. Не Игрушка / Not a Toy
24. Атака Жука / Attack of the Beetle
25. Обнаруженный / Revealed
26. Рост Гоблина / The Rise of the Goblin

2 Сезон
01. The Lizard (Ящер)
02. Electro (Электро)
03. Rhino (Рино)
04. Kraven the Hunter (Крэйвэн-Охотник)
05. Hawkeye (Соколиный Глаз)
06. The Sinister Six (Зловещая шестёрка)
07. Spidah-Man (Человек-Павук)
08. Carnage (Карнадж)
09. House Arrest (Домашний арест)
10. The Man-Wolf (Человек-Волк)
11. Swarm (Рой)
13. Journey of the Iron Fist (Путешествие Железного Кулака)
15. Ultimate Deadpool (Совершенный Дедпул)
17. Guardians of the Galaxy (Стражи Галактики)
21. Blade and the Howling Commandos (Блэйд)Pt. 1
22. Blade and the Howling Commandos(Блэйд Воющие коммандос) Pt. 2
23. Second Chance Hero(Второй шанс)
24. Sandman Returns (Возвращение Песочного Человека)
25. Return of the Sinister Six (1)(Возвращение Зловещей Шестёрки)
26. Ultimate (2)(Совершенный)



Общее
Полное имя : D:\М У Л Ь Т Ф И Л Ь М Ы\Ultimate_Spider_-_Man_2012_-_2013_S01_-_S02_RUS_DD5.1_x264_Nikolai.Baranov_WEB-DLRip-AVC_(720p)\S01\Ultimate_Spider_-_Man_2012_S01E01_rus[Disney_Channel]_DD5.1_x264_Nikolai.Baranov_WEB-DLRip-AVC_(720p).mp4
Формат : MPEG-4
Профиль формата : Base Media
Идентификатор кодека : isom
Размер файла : 564 Мбайт
Продолжительность : 22 м.
Режим общего битрейта : Переменный
Общий поток : 3561 Кбит/сек
Дата кодирования : UTC 2013-01-19 18:20:54
Дата пометки : UTC 2013-01-19 18:20:54
Программа кодирования : Lavf51.12.1

Видео
Идентификатор : 1
Формат : AVC
Формат/Информация : Advanced Video Codec
Профиль формата : Baseline@L4.2
Параметр CABAC формата : Нет
Параметр ReFrames формата : 1 кадр
Параметр GOP формата : M=1, N=12
Идентификатор кодека : avc1
Идентификатор кодека/Информация : Advanced Video Coding
Продолжительность : 22 м.
Вид битрейта : Переменный
Битрейт : 3101 Кбит/сек
Максимальный битрейт : 4500 Кбит/сек
Ширина : 1280 пикселей
Высота : 720 пикселей
Соотношение сторон : 16:9
Режим частоты кадров : Постоянный
Частота кадров : 25,000 кадров/сек
Частота кадров в оригинале : 24,000 кадра/сек
Цветовое пространство : YUV
Субдискретизация насыщенности : 4:2:0
Битовая глубина : 8 бит
Тип развёртки : Прогрессивная
Бит/(Пиксели*Кадры) : 0.135
Размер потока : 491 Мбайт (87%)
Дата кодирования : UTC 2013-01-19 18:20:54
Дата пометки : UTC 2013-01-19 18:20:54

Аудио
Идентификатор : 2
Формат : AAC
Формат/Информация : Advanced Audio Codec
Профиль формата : LC
Идентификатор кодека : 40
Продолжительность : 22 м.
Вид битрейта : Переменный
Битрейт : 456 Кбит/сек
Каналы : 6 каналов
Расположение каналов : Front: L C R, Side: L R, LFE
Частота : 44,1 КГц
Метод сжатия : С потерями
Размер потока : 72,2 Мбайт (13%)
Дата кодирования : UTC 2013-01-19 18:20:54
Дата пометки : UTC 2013-01-19 18:20:54


Общее
Полное имя : D:\М У Л Ь Т Ф И Л Ь М Ы\Ultimate_Spider_-_Man_2012_-_2013_S01_-_S02_RUS_DD5.1_x264_Nikolai.Baranov_WEB-DLRip-AVC_(720p)\S02\Ultimate_Spider_-_Man_2013_S02E01_rus[SerGoLeOne]_DD5.1_x264_Nikolai.Baranov_WEB-DLRip-AVC_(720p).mp4
Формат : MPEG-4
Профиль формата : Base Media
Идентификатор кодека : isom
Размер файла : 564 Мбайт
Продолжительность : 22 м.
Режим общего битрейта : Переменный
Общий поток : 3566 Кбит/сек
Дата кодирования : UTC 2013-01-24 22:19:24
Дата пометки : UTC 2013-01-24 22:19:24
Программа кодирования : Lavf51.12.1

Видео
Идентификатор : 1
Формат : AVC
Формат/Информация : Advanced Video Codec
Профиль формата : Baseline@L4.2
Параметр CABAC формата : Нет
Параметр ReFrames формата : 1 кадр
Параметр GOP формата : M=1, N=12
Идентификатор кодека : avc1
Идентификатор кодека/Информация : Advanced Video Coding
Продолжительность : 22 м.
Вид битрейта : Переменный
Битрейт : 3106 Кбит/сек
Максимальный битрейт : 4500 Кбит/сек
Ширина : 1280 пикселей
Высота : 720 пикселей
Соотношение сторон : 16:9
Режим частоты кадров : Постоянный
Частота кадров : 25,000 кадров/сек
Частота кадров в оригинале : 24,000 кадра/сек
Цветовое пространство : YUV
Субдискретизация насыщенности : 4:2:0
Битовая глубина : 8 бит
Тип развёртки : Прогрессивная
Бит/(Пиксели*Кадры) : 0.135
Размер потока : 492 Мбайт (87%)
Дата кодирования : UTC 2013-01-24 22:19:24
Дата пометки : UTC 2013-01-24 22:19:24

Аудио
Идентификатор : 2
Формат : AAC
Формат/Информация : Advanced Audio Codec
Профиль формата : LC
Идентификатор кодека : 40
Продолжительность : 22 м.
Вид битрейта : Переменный
Битрейт : 456 Кбит/сек
Каналы : 6 каналов
Расположение каналов : Front: L C R, Side: L R, LFE
Частота : 44,1 КГц
Метод сжатия : С потерями
Размер потока : 72,2 Мбайт (13%)
Дата кодирования : UTC 2013-01-24 22:19:24
Дата пометки : UTC 2013-01-24 22:19:24










1 Сезон

2 Сезон

1. Открыть торрент
2. Снять галки с тех файлов торрента, которые мы не хотим закачивать. Оставляем только на нужных нам файлах (файле).
3. Нажать О.К.

В клиенте utorrent

Инструкция

1) Открыть торрент


2) Снять галки с тех файлов торрента, которые мы не хотим закачивать:

* либо вручную, снимая с каждого файла галку( скрин №1)
* либо, нажав кнопку "Снять метки (Select None)", сняв сразу со всех файлов(скрин №2)
№1

№2

Оставляем только на нужных нам файлах (файле).

3)Нажать О.К



Внимание!!! 03.09. 2014. РАЗДАЧА ОБНОВЛЕНА.ОБНОВИТЕ ТОРЕНТ ФАЙЛ.ПРИЯТНОГО ПРОСМОТРА .



Релиз от: Nikolai.Baranov







_________________

Легко быть оптимистом, когда судьба не валит с ног тяжелыми ударами, а лишь иногда легонько шлепает по заднице.



реклама партнёра


Вернуться к началу
 Профиль Отправить личное сообщение  
 
   Похожие торренты   Автор   Торрент   Размер 
В этой теме нет новых непрочитанных сообщений. Совершенный Человек-Паук / Ultimate Spider-Man (Сезон 1-3, серии 1-68 из 78) (Тим Элдред, Алекс Сото) [2012-2014, Мультсериал, фантастика, боевик, комедия, WEBDLRip-AVC 720р] [DD5.1] [Dub]

Враг Нароода

56 | 224

36.64 ГБ

В этой теме нет новых непрочитанных сообщений. Совершенный Человек-Паук / Ultimate Spider-Man (Сезон 1-3, серии 1-61 из 78) (Тим Элдред, Алекс Сото) [2012-2014, Мультсериал, фантастика, боевик, комедия, HDTVRip, WEBDLRip-AVC 720р] [DD5.1] [Dub]

Враг Нароода

26 | 75

32.94 ГБ

В этой теме нет новых непрочитанных сообщений. Новый Человек-паук / The Amazing Spider-Man [фантастика, боевик, приключения, 2012] BDRip, Avo [Гаврилов]

salma3

23 | 3

1.46 ГБ

В этой теме нет новых непрочитанных сообщений. Революция / Revolution (Стив Бойум, Джон Фавро) (Сезон 1-2, Серии 1-42 из 42) [2012-2014, Фантастика , Драма , WEBDLRip-AVC 720р] [DD5.1] [MVO] [Rumedia+LostFilm]

Nikolai.Baranov

0 | 2

43.76 ГБ

В этой теме нет новых непрочитанных сообщений. Кулинар / KULINAR (сезон 1-2, серия 1-40 из 40) (Михаил Макаренко, Андрей Иванов) [2012- 2013, Боевик, криминал , WEBDLRip-AVC 720р] [DD5.1]

Nikolai.Baranov

15 | 14

46.84 ГБ

В этой теме нет новых непрочитанных сообщений. Новый Человек-паук: Высокое напряжение / The Amazing Spider-Man 2 [фэнтези, боевик, приключения, 2014] HDRip, Dub [iPad]

salma3

37 | 3

1.85 ГБ

В этой теме нет новых непрочитанных сообщений. Новый Человек-паук: Высокое напряжение / The Amazing Spider-Man 2: Rise of Electro [фэнтези, боевик, приключения, 2014] WEB-DLRip, Dub [iTunes]

Dracon

346 | 7

2.05 ГБ


Начать новую тему Ответить на тему  [ 1 сообщение ] 




Для Мосгорсуда, Роскомнадзора и рекламодателей:: mosgorsud-torrent[собачка]yandex.ru