Торрент файл
скачать торрент магнет ссылка Добавлен: 27 авг 2014, 20:00
Размер: 3.52 ГБ
Сидеров: 346
Личеров: 13
Автор

СообщениеДобавлено: 27 авг 2014, 20:00 

Не в сети
Зам. Админа
Аватара пользователя
Дата регистрации:
02 дек 2010, 12:39
Спасибо: 12461 / 214
Сообщения: 27968
«Волшебство только начинается»




Страна: Дания, Швеция / Copenhagen Bombay, Film i Väst

Жанр: мультфильм, фэнтези
Год выпуска: 2014
Продолжительность: 01:18:25

Перевод: Профессиональный (дублированный)
Cубтитры: нет
Оригинальная аудиодорожка: шведский

Режиссер: Эсбен Тофт Якобсен / Esben Toft Jacobsen

В ролях: Эдвин Рюдинг, Тува Новотны, Густаф Хаммарстен, Леннарт Якель, Сиселла Кайл, Лейф Андре, Pelle Falk Krusbæk, Сёс Эгелинд, Ларс Бригманн, Флемминг Квист Мюллер...

Роли дублировали: Марина Гладкая, Андрей Лёвин, Станислав Концевич, Галина Чигинская, Алексей Макрецкий

Описание: В поисках своей мамы Йохан попадает в далекое Царство Короля Перьев, откуда нет дороги назад. От судьбы не уйдешь: теперь он должен сам позаботиться о спасении не только своей мамы, но и всего королевства. Но разве можно понимать все тонкости жизни и играть по ее правилам, когда ты еще так молод?



Качество: BDRip 720p
Формат: MKV
Видео: 1280x528 (2.40:1), MPEG-4 AVC 4475 Кбит/сек / 23.976 fps / Бит/(Пиксели*Кадры) : 0.276
Аудио 1: Dolby Digital Audio Russian 448 kbps 5.1 / 48 kHz
Аудио 2: DTS Audio Swedish 1536 kbps 5.1 / 48 kHz

Дополнительно: Фильм разбит на главы, как на оригинальном DVD диске

Общее
Полное имя : Za.tridevyat.zemel.2014.BDRip.720p.mkv
Формат : Matroska
Версия формата : Version 4 / Version 2
Размер файла : 3,52 Гбайт
Продолжительность : 1 ч. 18 м.
Общий поток : 6427 Кбит/сек
Дата кодирования : UTC 2014-08-27 06:03:10
Программа кодирования : mkvmerge v7.1.0 ('Good Love') 64bit built on Jul 27 2014 13:06:55
Библиотека кодирования : libebml v1.3.0 + libmatroska v1.4.1
DURATION : 01:18:24.725000000
NUMBER_OF_FRAMES : 441068
NUMBER_OF_BYTES : 887428816
_STATISTICS_WRITING_APP : mkvmerge v7.1.0 ('Good Love') 64bit built on Jul 27 2014 13:06:55
_STATISTICS_WRITING_DATE_UTC : 2014-08-27 06:03:10
_STATISTICS_TAGS : BPS DURATION NUMBER_OF_FRAMES NUMBER_OF_BYTES

Видео
Идентификатор : 1
Формат : AVC
Формат/Информация : Advanced Video Codec
Профиль формата : High@L4.1
Параметр CABAC формата : Да
Параметр ReFrames формата : 5 кадров
Идентификатор кодека : V_MPEG4/ISO/AVC
Продолжительность : 1 ч. 18 м.
Битрейт : 4475 Кбит/сек
Ширина : 1280 пикселей
Высота : 528 пикселей
Соотношение сторон : 2,40:1
Режим частоты кадров : Постоянный
Частота кадров : 23,976 кадра/сек
Цветовое пространство : YUV
Субдискретизация насыщенности : 4:2:0
Битовая глубина : 8 бит
Тип развёртки : Прогрессивная
Бит/(Пиксели*Кадры) : 0.276
Размер потока : 2,38 Гбайт (68%)
Библиотека кодирования : x264 core 142 r2453kMod ea0ca51
Настройки программы : cabac=1 / ref=5 / deblock=1:0:0 / analyse=0x3:0x133 / me=umh / subme=7 / psy=1 / fade_compensate=0.00 / psy_rd=1.00:0.00 / mixed_ref=1 / me_range=16 / chroma_me=1 / trellis=1 / 8x8dct=1 / cqm=0 / deadzone=21,11 / fast_pskip=0 / chroma_qp_offset=-2 / threads=6 / lookahead_threads=1 / sliced_threads=0 / nr=0 / decimate=1 / interlaced=0 / bluray_compat=0 / constrained_intra=0 / fgo=0 / bframes=3 / b_pyramid=2 / b_adapt=2 / b_bias=0 / direct=3 / weightb=1 / open_gop=0 / weightp=2 / keyint=250 / keyint_min=23 / scenecut=40 / intra_refresh=0 / rc_lookahead=50 / rc=2pass / mbtree=1 / bitrate=4475 / ratetol=1.0 / qcomp=0.60 / qpmin=0 / qpmax=69 / qpstep=4 / cplxblur=20.0 / qblur=0.5 / ip_ratio=1.40 / aq=1:1.00
Язык : Swedish
Default : Да
Forced : Нет
DURATION : 01:18:24.659000000
NUMBER_OF_FRAMES : 112799
NUMBER_OF_BYTES : 2630468617
_STATISTICS_WRITING_APP : mkvmerge v7.1.0 ('Good Love') 64bit built on Jul 27 2014 13:06:55
_STATISTICS_WRITING_DATE_UTC : 2014-08-27 06:03:10
_STATISTICS_TAGS : BPS DURATION NUMBER_OF_FRAMES NUMBER_OF_BYTES

Аудио #1
Идентификатор : 2
Формат : AC-3
Формат/Информация : Audio Coding 3
Расширение режима : CM (complete main)
Параметр Endianness формата : Big
Идентификатор кодека : A_AC3
Продолжительность : 1 ч. 18 м.
Вид битрейта : Постоянный
Битрейт : 448 Кбит/сек
Каналы : 6 каналов
Расположение каналов : Front: L C R, Side: L R, LFE
Частота : 48,0 КГц
Битовая глубина : 16 бит
Метод сжатия : С потерями
Размер потока : 251 Мбайт (7%)
Язык : Russian
Default : Да
Forced : Нет

Аудио #2
Идентификатор : 3
Формат : DTS
Формат/Информация : Digital Theater Systems
Режим : 16
Параметр Endianness формата : Big
Идентификатор кодека : A_DTS
Продолжительность : 1 ч. 18 м.
Вид битрейта : Постоянный
Битрейт : 1509 Кбит/сек
Каналы : 6 каналов
Расположение каналов : Front: L C R, Side: L R, LFE
Частота : 48,0 КГц
Битовая глубина : 24 бит
Метод сжатия : С потерями
Размер потока : 847 Мбайт (23%)
Язык : Swedish
Default : Нет
Forced : Нет

Меню
00:00:00.000 : en:00:00:00.000
00:03:35.680 : en:00:03:35.680
00:08:08.800 : en:00:08:08.800
00:12:19.840 : en:00:12:19.840
00:16:19.440 : en:00:16:19.440
00:20:41.440 : en:00:20:41.440
00:25:21.760 : en:00:25:21.760
00:30:09.760 : en:00:30:09.760
00:34:00.160 : en:00:34:00.160
00:39:38.560 : en:00:39:38.560
00:45:40.000 : en:00:45:40.000
00:50:50.080 : en:00:50:50.080
00:55:37.120 : en:00:55:37.120
01:00:26.080 : en:01:00:26.080
01:06:08.400 : en:01:06:08.400
01:10:47.200 : en:01:10:47.200




реклама партнёра


Вернуться к началу
 Профиль  
 
   Похожие торренты   Автор   Торрент   Размер 
В этой теме нет новых непрочитанных сообщений. За тридевять земель / Resan till Fjäderkungens Rike [мультфильм, фэнтези, 2013] BDRip 1080p, Dub [лицензия]

Dracon

453 | 24

4.62 ГБ

В этой теме нет новых непрочитанных сообщений. За тридевять земель / Resan till Fjaderkungens Rike [мультфильм, фэнтези, 2013] BDRip 720p, dub [Чистый звук]

Dracon

299 | 10

3.38 ГБ

В этой теме нет новых непрочитанных сообщений. За тридевять земель / Resan till Fjäderkungens Rike [мультфильм, фэнтези, 2013] DVD5, Dub [лицензия]

Dracon

106 | 39

3.91 ГБ

В этой теме нет новых непрочитанных сообщений. За тридевять земель / Resan till Fjaderkungens Rike [мультфильм, фэнтези, 2013] HDRip-AVC, Dub [лицензия]

Dracon

750 | 15

1.46 ГБ

В этой теме нет новых непрочитанных сообщений. За тридевять земель / Resan till Fjaderkungens Rike [мультфильм, фэнтези, 2013] HDRip, dub [Чистый звук]

Dracon

1625 | 61

1.37 ГБ

В этой теме нет новых непрочитанных сообщений. Холодное сердце / Frozen [Мультфильм, фэнтези, комедия, приключения, семейный, 2013] BDRip 720p, Dub+Sub [Лицензия]

Dracon

1219 | 26

4.37 ГБ

В этой теме нет новых непрочитанных сообщений. Холодное сердце / Frozen [Мультфильм, фэнтези, комедия, приключения, семейный, 2013] BDRip-AVC, Dub+Sub [Лицензия]

Dracon

6262 | 148

1.47 ГБ


Начать новую тему Ответить на тему  [ 1 сообщение ] 




Для Мосгорсуда, Роскомнадзора и рекламодателей:: mosgorsud-torrent[собачка]yandex.ru