Торрент файл
скачать торрент магнет ссылка Добавлен: 25 авг 2014, 09:41
Размер: 5.77 ГБ
Сидеров: 2
Личеров: 2
Автор

СообщениеДобавлено: 25 авг 2014, 09:41 

Не в сети
Зам. Админа
Аватара пользователя
Дата регистрации:
02 дек 2010, 12:39
Спасибо: 12461 / 214
Сообщения: 27968
Год выхода: 2013
Жанр: мультфильм, мюзикл, фэнтези, драма, мелодрама, приключения
Режиссер: Стефан Берла, Матиас Мальзьё
В ролях: Матиас Мальзьё, Оливия Руис, Гран Кор Маляд, Жан Рошфор, Росси де Пальма, Мари Винсент, Эмили Луазо, Артур Х., Дани

О фильме:
Джек родился в Эдинбурге, в «самый холодный день на свете», и сердце его мгновенно оледенело. Брошенного матерью мальчика усыновляет акушерка-волшебница, Докторша Мадлен. Она вставляет ему в грудь часы, которые помогают сердцу биться, но влюбляться Джеку нельзя — такого пылкого чувства хрупкая сердечная механика не выдержит. Однако подросший Джек невольно нарушает запрет, увидев на прогулке маленькую уличную певицу…

Качество: BDRip [1080p]
Видео: AVC, 1920x1080, 6979 Кбит/с, 24.000 fps
Аудио1: AC3, 384 Кбит/с, 6 ch, 48.0 КГц Russian
Аудио2: AC3, 384 Кбит/с, 6 ch, 48.0 КГц English
Аудио3: DTS, 1509 Кбит/с, 6 ch, 48.0 КГц French
Продолжительность: 01:32:32
Перевод: Профессиональный (многоголосный) AlexFilm
Субтитры: Russian [вшитые на песни]

Общее
Уникальный идентификатор                 : 187365886061639516222281815724911113795 (0x8CF55B67C727C3DBB1C562DC29AA3643)
Формат                                   : Matroska
Версия формата                           : Version 4 / Version 2
Продолжительность                        : 1 ч. 32 м.
Общий поток                              : 1670 Кбит/сек
Дата кодирования                         : UTC 2014-08-24 18:27:12
Программа кодирования                    : mkvmerge v6.2.0 ('Promised Land') built on Apr 28 2013 12:22:01
Библиотека кодирования                   : libebml v1.3.0 + libmatroska v1.4.0
Attachment                               : Yes

Видео
Идентификатор                            : 1
Формат                                   : AVC
Формат/Информация                        : Advanced Video Codec
Профиль формата                          : High@L4.1
Параметр CABAC формата                   : Да
Параметр ReFrames формата                : 4 кадра
Идентификатор кодека                     : V_MPEG4/ISO/AVC
Продолжительность                        : 1 ч. 32 м.
Битрейт                                  : 6979 Кбит/сек
Ширина                                   : 1920 пикселей
Высота                                   : 1080 пикселей
Соотношение сторон                       : 16:9
Режим частоты кадров                     : Постоянный
Частота кадров                           : 24,000 кадра/сек
Цветовое пространство                    : YUV
Субдискретизация насыщенности            : 4:2:0
Битовая глубина                          : 8 бит
Тип развёртки                            : Прогрессивная
Заголовок                                : NTSC, 1920x1080 (1.778:1), BDRip 1080p - tRuAVC & Multfilmy [DFCbit]
Библиотека кодирования                   : x264 core 142 r2453kMod ea0ca51
Язык                                     : English
Default                                  : Да
Forced                                   : Нет
Основные цвета                           : BT.709
Характеристики трансфера                 : BT.709
Коэффициенты матрицы                     : BT.709

Аудио #1
Идентификатор                            : 2
Формат                                   : AC-3
Формат/Информация                        : Audio Coding 3
Расширение режима                        : CM (complete main)
Параметр Endianness формата              : Big
Идентификатор кодека                     : A_AC3
Продолжительность                        : 1 ч. 32 м.
Вид битрейта                             : Постоянный
Битрейт                                  : 384 Кбит/сек
Каналы                                   : 6 каналов
Расположение каналов                     : Front: L C R, Side: L R, LFE
Частота                                  : 48,0 КГц
Битовая глубина                          : 16 бит
Метод сжатия                             : С потерями
Размер потока                            : 254 Мбайт (23%)
Заголовок                                : AC3, 6 ch, 48 kHz, 384 kbps - MVO | AlexFilm
Язык                                     : Russian
Default                                  : Да
Forced                                   : Нет

Аудио #2
Идентификатор                            : 3
Формат                                   : AC-3
Формат/Информация                        : Audio Coding 3
Расширение режима                        : CM (complete main)
Параметр Endianness формата              : Big
Идентификатор кодека                     : A_AC3
Продолжительность                        : 1 ч. 32 м.
Вид битрейта                             : Постоянный
Битрейт                                  : 384 Кбит/сек
Каналы                                   : 6 каналов
Расположение каналов                     : Front: L C R, Side: L R, LFE
Частота                                  : 48,0 КГц
Битовая глубина                          : 16 бит
Метод сжатия                             : С потерями
Размер потока                            : 254 Мбайт (23%)
Заголовок                                : AC3, 6 ch, 48 kHz, 384 kbps - Dubbing
Язык                                     : English
Default                                  : Нет
Forced                                   : Нет

Аудио #3
Идентификатор                            : 4
Формат                                   : DTS
Формат/Информация                        : Digital Theater Systems
Режим                                    : 16
Параметр Endianness формата              : Big
Идентификатор кодека                     : A_DTS
Продолжительность                        : 1 ч. 32 м.
Вид битрейта                             : Постоянный
Битрейт                                  : 1509 Кбит/сек
Каналы                                   : 6 каналов
Расположение каналов                     : Front: L C R, Side: L R, LFE
Частота                                  : 48,0 КГц
Битовая глубина                          : 24 бит
Метод сжатия                             : С потерями
Размер потока                            : 999 Мбайт (90%)
Заголовок                                : DTS / 5.1 / 48 kHz / 1509 kbps / 24-bit - Original
Язык                                     : French
Default                                  : Нет
Forced                                   : Нет

Текст
Идентификатор                            : 5
Формат                                   : ASS
Идентификатор кодека                     : S_TEXT/ASS
Идентификатор кодека/Информация          : Advanced Sub Station Alpha
Метод сжатия                             : Без потерь
Заголовок                                : ASS, Songs
Язык                                     : Russian
Default                                  : Да
Forced                                   : Да






реклама партнёра


Вернуться к началу
 Профиль  
 
   Похожие торренты   Автор   Торрент   Размер 
В этой теме нет новых непрочитанных сообщений. Механика сердца / Jack et la mecanique du coeur [мультфильм, мюзикл, фэнтези, драма, мелодрама, приключения, 2013] HDRip, Mvo

Dracon

5 | 3

1.37 ГБ

В этой теме нет новых непрочитанных сообщений. Механика сердца / Jack et la mécanique du coeur (Стефан Берла, Матиас Мальзьё) [2013, мультфильм, мюзикл, фэнтези, драма, мелодрама, приключения, BDRip 720p]

Nickolas3435

96 | 7

3.52 ГБ

В этой теме нет новых непрочитанных сообщений. Механика сердца / Jack et la mécanique du coeur (Стефан Берла, Матиас Мальзьё) [мультфильм, мюзикл, фэнтези, драма, мелодрама, приключения, 2013] BDRip 720p, Mvo+Sub

Dracon

212 | 37

2.19 ГБ

В этой теме нет новых непрочитанных сообщений. Механика сердца / Jack et la mécanique du coeur (Стефан Берла, Матиас Мальзьё) [2013, мультфильм, мюзикл, фэнтези, драма, мелодрама, приключения, HDRip]

Nickolas3435

432 | 6

1.37 ГБ

В этой теме нет новых непрочитанных сообщений. Приключения олененка Рудольфа / Rudolph, the Red-Nosed Reindeer [мультфильм, мюзикл, фэнтези, приключения, семейный, 1964] BDRip 1080p, Mvo

salma3

7 | 4

3.62 ГБ

В этой теме нет новых непрочитанных сообщений. Красавица и чудовище / Beauty and the Beast [Мультфильм, Мюзикл, Фэнтези, Мелодрама, Семейный, 1991] BDRip 1080p, Dub+Sub [3D-Video]

Dracon

254 | 19

8.16 ГБ

В этой теме нет новых непрочитанных сообщений. Карта человеческого сердца / Map of the Human Heart [Драма, приключения, мелодрама, военный, 1993] BDRip 1080p, Dvo+Sub

salma3

12 | 10

13.5 ГБ


Начать новую тему Ответить на тему  [ 1 сообщение ] 




Для Мосгорсуда, Роскомнадзора и рекламодателей:: mosgorsud-torrent[собачка]yandex.ru