Торрент файл
скачать торрент магнет ссылка Добавлен: 17 авг 2014, 10:17
Размер: 20.72 ГБ
Сидеров: 41
Личеров: 5
Статус: (Dracon)
Автор

СообщениеДобавлено: 17 авг 2014, 10:17 

Не в сети
Зам. Админа
Аватара пользователя
Дата регистрации:
02 дек 2010, 12:39
Спасибо: 12561 / 214
Сообщения: 28070
Год выхода: 2013
Жанр: Мультфильм, мюзикл, семейный
Режиссер: Уилл Финн, Дэн Ст. Пьер
В ролях: Лиа Мишель, Патрик Стюарт, Джеймс Белуши, Дэн Эйкройд, Келси Грэммер, Меган Хилти, Хью Дэнси, Оливер Плэтт, Бернадетт Питерс, Мартин Шорт

О фильме:
Дороти снова магическим образом переносится в страну Оз, чтобы спасти от беды ее жителей. Но оказывается, что старые друзья Дороти - Страшила, Железный Дровосек и Храбрый Лев - исчезли. Путешествуя по стране в поисках своих друзей, Дороти встречает новых попутчиков - Капитана Зефира, Фарфоровую Принцессу и филина Савву. Дороти должна помочь таким разным героям объединиться, чтобы одолеть нового злодея - шута Джестера, который хочет захватить страну Оз при помощи черной магии.


Страна: США, Индия
Студия: Prana Animation Studios, Prana Studios, Summertime Entertainment (II)
Продолжительность: 01:28:13
Перевод: Дублированный (CD Land)

Кодек: MPEG-4 AVC
Качество: Blu-Ray Remux 1080p
Видео: 27324 Кбит/с, 1920x1080
Звук: Русский (AC3, 6 ch, 448 Кбит/с), английский (AC3, 6 ch, 448 Кбит/с), (DTS-HD MA, 6 ch, 4011 Кбит/с)
Субтитры: Английские

Семпл

Формат : Matroska
Версия формата : Version 4 / Version 2
Размер файла : 20,7 Гбайт
Продолжительность : 1 ч. 32 м.
Режим общего битрейта : Переменный
Общий поток : 32,2 Мбит/сек
Название фильма : Legends.Of.Oz.Dorothys.Return.2013.D.Blu-Ray.Remux.(1080p).NovaLan
Дата кодирования : UTC 2014-08-16 16:33:13
Программа кодирования : mkvmerge v7.1.0 ('Good Love') 64bit built on Jul 27 2014 13:06:55
Библиотека кодирования : libebml v1.3.0 + libmatroska v1.4.1
_STATISTICS_WRITING_APP : mkvmerge v7.1.0 ('Good Love') 64bit built on Jul 27 2014 13:06:55
_STATISTICS_WRITING_DATE_UTC : 2014-08-16 16:33:13
_STATISTICS_TAGS : BPS DURATION NUMBER_OF_FRAMES NUMBER_OF_BYTES
DURATION : 01:32:02.464000000
NUMBER_OF_FRAMES : 172577
NUMBER_OF_BYTES : 309257984

Видео
Идентификатор : 1
Формат : AVC
Формат/Информация : Advanced Video Codec
Профиль формата : High@L4.1
Параметр CABAC формата : Да
Параметр ReFrames формата : 2 кадра
Параметр GOP формата : M=1, N=10
Идентификатор кодека : V_MPEG4/ISO/AVC
Продолжительность : 1 ч. 32 м.
Вид битрейта : Переменный
Ширина : 1920 пикселей
Высота : 1080 пикселей
Соотношение сторон : 16:9
Режим частоты кадров : Постоянный
Частота кадров : 23,976 кадра/сек
Цветовое пространство : YUV
Субдискретизация насыщенности : 4:2:0
Битовая глубина : 8 бит
Тип развёртки : Прогрессивная
Заголовок : Legends.Of.Oz.Dorothys.Return.2013.D.Blu-Ray.Remux.(1080p)
Язык : English
Default : Нет
Forced : Нет
_STATISTICS_WRITING_APP : mkvmerge v7.1.0 ('Good Love') 64bit built on Jul 27 2014 13:06:55
_STATISTICS_WRITING_DATE_UTC : 2014-08-16 16:33:13
_STATISTICS_TAGS : BPS DURATION NUMBER_OF_FRAMES NUMBER_OF_BYTES
DURATION : 01:32:02.517000000
NUMBER_OF_FRAMES : 132408
NUMBER_OF_BYTES : 18861757845

Аудио #1
Идентификатор : 2
Формат : AC-3
Формат/Информация : Audio Coding 3
Расширение режима : CM (complete main)
Параметр Endianness формата : Big
Идентификатор кодека : A_AC3
Продолжительность : 1 ч. 32 м.
Вид битрейта : Постоянный
Битрейт : 448 Кбит/сек
Каналы : 6 каналов
Расположение каналов : Front: L C R, Side: L R, LFE
Частота : 48,0 КГц
Битовая глубина : 16 бит
Метод сжатия : С потерями
Размер потока : 295 Мбайт (1%)
Заголовок : Дублированный (CD Land)
Язык : Russian
Default : Да
Forced : Нет
_STATISTICS_WRITING_APP : mkvmerge v7.1.0 ('Good Love') 64bit built on Jul 27 2014 13:06:55
_STATISTICS_WRITING_DATE_UTC : 2014-08-16 16:33:13
_STATISTICS_TAGS : BPS DURATION NUMBER_OF_FRAMES NUMBER_OF_BYTES
DURATION : 01:32:02.517000000
NUMBER_OF_FRAMES : 517736
NUMBER_OF_BYTES : 2768729136

Аудио #2
Идентификатор : 3
Формат : AC-3
Формат/Информация : Audio Coding 3
Расширение режима : CM (complete main)
Параметр Endianness формата : Big
Идентификатор кодека : A_AC3
Продолжительность : 1 ч. 32 м.
Вид битрейта : Постоянный
Битрейт : 448 Кбит/сек
Каналы : 6 каналов
Расположение каналов : Front: L C R, Side: L R, LFE
Частота : 48,0 КГц
Битовая глубина : 16 бит
Метод сжатия : С потерями
Размер потока : 295 Мбайт (1%)
Заголовок : AC3 5.1
Язык : English
Default : Нет
Forced : Нет

Аудио #3
Идентификатор : 4
Формат : DTS
Формат/Информация : Digital Theater Systems
Профиль формата : MA / Core
Режим : 16
Параметр Endianness формата : Big
Идентификатор кодека : A_DTS
Продолжительность : 1 ч. 32 м.
Вид битрейта : Переменный
Битрейт : Неизвестно / 1509 Кбит/сек
Каналы : 6 каналов
Расположение каналов : Front: L C R, Side: L R, LFE
Частота : 48,0 КГц
Битовая глубина : 24 бит
Метод сжатия : Без потерь / Lossy
Заголовок : DTS-HD MA 5.1
Язык : English
Default : Нет
Forced : Нет

Текст
Идентификатор : 5
Формат : UTF-8
Идентификатор кодека : S_TEXT/UTF8
Идентификатор кодека/Информация : UTF-8 Plain Text
Язык : English
Default : Да
Forced : Нет

Меню
00:00:00.000 : en:Chapter 01
00:03:40.970 : en:Chapter 02
00:05:14.397 : en:Chapter 03
00:08:56.786 : en:Chapter 04
00:12:02.012 : en:Chapter 05
00:15:57.331 : en:Chapter 06
00:19:32.629 : en:Chapter 07
00:22:26.887 : en:Chapter 08
00:25:17.182 : en:Chapter 09
00:28:02.055 : en:Chapter 10
00:29:57.337 : en:Chapter 11
00:33:33.761 : en:Chapter 12
00:35:27.125 : en:Chapter 13
00:38:47.533 : en:Chapter 14
00:43:44.580 : en:Chapter 15
00:46:06.764 : en:Chapter 16
00:48:36.580 : en:Chapter 17
00:51:07.647 : en:Chapter 18
00:54:42.737 : en:Chapter 19
00:56:01.441 : en:Chapter 20
00:59:25.853 : en:Chapter 21
01:04:15.685 : en:Chapter 22
01:06:55.011 : en:Chapter 23
01:11:13.936 : en:Chapter 24
01:14:10.904 : en:Chapter 25
01:17:43.367 : en:Chapter 26
01:21:38.143 : en:Chapter 27
01:24:06.332 : en:Chapter 28




реклама партнёра


Вернуться к началу
 Профиль  
 
   Похожие торренты   Автор   Торрент   Размер 
В этой теме нет новых непрочитанных сообщений. Оз: Возвращение в Изумрудный Город / Legends of Oz: Dorothy's Return [мультфильм, мюзикл, семейный, 2013] BDRip-AVC, Dub [лицензия]

Dracon

104 | 4

2.15 ГБ

В этой теме нет новых непрочитанных сообщений. Оз: Возвращение в Изумрудный Город / Legends of Oz: Dorothy's Return [мультфильм, мюзикл, семейный, 2013] DVD5, Dub+Sub [лицензия]

Dracon

82 | 30

4.03 ГБ

В этой теме нет новых непрочитанных сообщений. Оз: Возвращение в Изумрудный Город / Legends of Oz: Dorothy's Return [мультфильм, мюзикл, семейный, 2013] BDRip-AVC, Dub [лицензия | 3D-Video]

Dracon

378 | 29

7.41 ГБ

В этой теме нет новых непрочитанных сообщений. Оз: Возвращение в Изумрудный Город / Legends of Oz: Dorothy's Return [мультфильм, мюзикл, семейный, 2013] BDRip 1080p, dub [Чистый звук]

Dracon

2 | 2

5.59 ГБ

В этой теме нет новых непрочитанных сообщений. Оз: Возвращение в Изумрудный Город / Legends of Oz: Dorothy's Return [мультфильм, мюзикл, семейный, 2013] HDTVRip, dub [Звук с TS]

Dracon

456 | 12

1.37 ГБ

В этой теме нет новых непрочитанных сообщений. Оз: Возвращение в Изумрудный Город / Legends of Oz: Dorothy's Return [мультфильм, мюзикл, семейный, 2013] BDRip 720p, dub [Чистый звук]

Dracon

3 | 2

3.4 ГБ

В этой теме нет новых непрочитанных сообщений. Оз: Возвращение в Изумрудный Город / Legends of Oz: Dorothy's Return (Уилл Финн, Дэн Ст. Пьер) [2013, мультфильм, мюзикл, семейный, HDTVRip] Dub Звук с TS

Nickolas3435

168 | 10

703.03 МБ


Начать новую тему Ответить на тему  [ 1 сообщение ] 




Для Мосгорсуда, Роскомнадзора и рекламодателей:: mosgorsud-torrent[собачка]yandex.ru