Торрент файл
скачать торрент магнет ссылка Добавлен: 13 авг 2014, 18:52
Размер: 9.18 ГБ
Сидеров: 18
Личеров: 5
Автор

СообщениеДобавлено: 13 авг 2014, 18:52 

Не в сети
Супермодератор
Аватара пользователя
Дата регистрации:
15 фев 2012, 16:44
Возраст: 27
Спасибо: 5135 / 2089
Сообщения: 17405
Год выхода: 1996
Жанр: Мюзикл, фэнтези, приключения, семейный
Режиссер: Генри Селик
В ролях: Саймон Кэллоу, Ричард Дрейфусс, Джейн Ливз, Джоанна Ламли, Мириам Марголис, Пит Постлетуэйт, Сьюзен Сарандон, Дэвид Тьюлис

О фильме:
Однажды маленький Джеймс спасает жизнь паука. В благодарность тот дарит мальчику волшебное зелье, из-за которого небольшой персик неожиданно вырастает в гигантский фрукт. Внутри него скрывается целый мир. Возможно, там Джеймса ждут настоящие друзья, которые помогут осуществить его самые заветные мечты…



Страна: США
Студия: Walt Disney Pictures
Продолжительность: 01:19:25
Перевод#1: Профессиональный (многоголосый закадровый) Канал "Дисней"
Перевод#2: Профессиональный (многоголосый закадровый) "Видеосервис" (VHS Hi-Fi)

Файл
Кодек: H.264
Качество: BDRip 1080p
Видео: MPEG-4 AVC, 1808x1080, 12.8 Mбит/с, 23.976 кадр/с
Аудио#1: Русский (DTS, 6ch, 1510 Кбит/с, 48.0 KHz)
Аудио#2: Русский (FLAC, 2ch, 712 Кбит/с, 48.0 KHz)
Аудио#3: Английский (DTS, 6ch, 1510 Кбит/с, 48.0 KHz)
Субтитры: Английские

Сэмпл



General
Unique ID : 221717264239707801144883611341631886283 (0xA6CD311C5716FF2C8CE407855F5993CB)
Complete name : C:UsersпкDesktopJames and the Giant Peach (1996) BDRip (1080p).mkv
Format : Matroska
Format version : Version 4 / Version 2
File size : 9.18 GiB
Duration : 1h 19mn
Overall bit rate mode : Variable
Overall bit rate : 16.5 Mbps
Encoded date : UTC 2014-08-13 10:53:56
Writing application : mkvmerge v7.0.0 ('Where We Going') 64bit built on Jun 9 2014 15:16:27
Writing library : libebml v1.3.0 + libmatroska v1.4.1
DURATION : 01:19:25.077000000
NUMBER_OF_FRAMES : 55841
NUMBER_OF_BYTES : 424276825
_STATISTICS_WRITING_APP : mkvmerge v7.0.0 ('Where We Going') 64bit built on Jun 9 2014 15:16:27
_STATISTICS_WRITING_DATE_UTC : 2014-08-13 10:53:56
_STATISTICS_TAGS : BPS DURATION NUMBER_OF_FRAMES NUMBER_OF_BYTES

Video
ID : 1
Format : AVC
Format/Info : Advanced Video Codec
Format profile : High@L4.1
Format settings, CABAC : Yes
Format settings, ReFrames : 4 frames
Codec ID : V_MPEG4/ISO/AVC
Duration : 1h 19mn
Nominal bit rate : 12.8 Mbps
Width : 1 808 pixels
Height : 1 080 pixels
Display aspect ratio : 1.674
Frame rate mode : Constant
Frame rate : 23.976 fps
Color space : YUV
Chroma subsampling : 4:2:0
Bit depth : 8 bits
Scan type : Progressive
Bits/(Pixel*Frame) : 0.274
Writing library : x264 core 104 r1677 19df41a
Encoding settings : cabac=1 / ref=4 / deblock=1:0:0 / analyse=0x3:0x133 / me=umh / subme=7 / psy=1 / psy_rd=1.00:0.00 / mixed_ref=1 / me_range=16 / chroma_me=1 / trellis=1 / 8x8dct=1 / cqm=0 / deadzone=21,11 / fast_pskip=0 / chroma_qp_offset=-2 / threads=12 / sliced_threads=0 / nr=0 / decimate=1 / interlaced=0 / constrained_intra=0 / bframes=3 / b_pyramid=2 / b_adapt=1 / b_bias=0 / direct=1 / weightb=1 / open_gop=0 / weightp=2 / keyint=250 / keyint_min=23 / scenecut=40 / intra_refresh=0 / rc_lookahead=40 / rc=2pass / mbtree=1 / bitrate=12817 / ratetol=1.0 / qcomp=0.60 / qpmin=10 / qpmax=51 / qpstep=4 / cplxblur=20.0 / qblur=0.5 / ip_ratio=1.40 / aq=1:1.00
Language : English
Default : No
Forced : No
DURATION : 01:19:25.018000000
NUMBER_OF_FRAMES : 114246
NUMBER_OF_BYTES : 7631666057
_STATISTICS_WRITING_APP : mkvmerge v7.0.0 ('Where We Going') 64bit built on Jun 9 2014 15:16:27
_STATISTICS_WRITING_DATE_UTC : 2014-08-13 10:53:56
_STATISTICS_TAGS : BPS DURATION NUMBER_OF_FRAMES NUMBER_OF_BYTES

Audio #1
ID : 2
Format : DTS
Format/Info : Digital Theater Systems
Mode : 16
Format settings, Endianness : Big
Codec ID : A_DTS
Duration : 1h 19mn
Bit rate mode : Constant
Bit rate : 1 509 Kbps
Channel(s) : 6 channels
Channel positions : Front: L C R, Side: L R, LFE
Sampling rate : 48.0 KHz
Bit depth : 24 bits
Compression mode : Lossy
Stream size : 857 MiB (9%)
Title : Канал "Дисней"
Language : Russian
Default : Yes
Forced : No

Audio #2
ID : 3
Format : FLAC
Format/Info : Free Lossless Audio Codec
Codec ID : A_FLAC
Duration : 1h 19mn
Bit rate mode : Variable
Channel(s) : 2 channels
Sampling rate : 48.0 KHz
Bit depth : 16 bits
Title : "Видеосервис" (VHS Hi-Fi)
Writing library : libFLAC 1.2.1 (UTC 2007-09-17)
Language : Russian
Default : No
Forced : No

Audio #3
ID : 4
Format : DTS
Format/Info : Digital Theater Systems
Mode : 16
Format settings, Endianness : Big
Codec ID : A_DTS
Duration : 1h 19mn
Bit rate mode : Constant
Bit rate : 1 509 Kbps
Channel(s) : 6 channels
Channel positions : Front: L C R, Side: L R, LFE
Sampling rate : 48.0 KHz
Bit depth : 24 bits
Compression mode : Lossy
Stream size : 857 MiB (9%)
Language : English
Default : No
Forced : No

Text
ID : 5
Format : UTF-8
Codec ID : S_TEXT/UTF8
Codec ID/Info : UTF-8 Plain Text
Title : English
Language : English
Default : No
Forced : No


_________________



реклама партнёра


Вернуться к началу
 Профиль Отправить личное сообщение  
 
   Похожие торренты   Автор   Торрент   Размер 
В этой теме нет новых непрочитанных сообщений. Весь этот джаз / All That Jazz [мюзикл, фэнтези, драма, музыка, 1979] BDRip 1080p, 2Mvo+2Avo+Sub

salma3

9 | 5

16.66 ГБ

В этой теме нет новых непрочитанных сообщений. Приключения олененка Рудольфа / Rudolph, the Red-Nosed Reindeer [мультфильм, мюзикл, фэнтези, приключения, семейный, 1964] BDRip 1080p, Mvo

salma3

7 | 4

3.62 ГБ

В этой теме нет новых непрочитанных сообщений. Лабиринт / Labyrinth [мюзикл, фэнтези, приключения, семейный, 1986] BDRip 1080p, 3Mvo+3Avo

salma3

62 | 46

8.8 ГБ

В этой теме нет новых непрочитанных сообщений. Каспер / Casper [Фэнтези, комедия, семейный, 1995] BDRip 1080p, 2Dvo+2mvo+3Avo+Sub

salma3

46 | 8

9.69 ГБ

В этой теме нет новых непрочитанных сообщений. Горец / Highlander [фэнтези, боевик, драма, приключения, 1986] BDRip 1080p, 2Mvo+4Avo+Sub

salma3

60 | 10

17.87 ГБ

В этой теме нет новых непрочитанных сообщений. Весь этот джаз / All That Jazz [мюзикл, фэнтези, драма, музыка, 1979] BDRip 720p, 2Mvo+2Avo+Sub

salma3

22 | 6

7.29 ГБ

В этой теме нет новых непрочитанных сообщений. В поисках приключений / The Quest [боевик, приключения, 1996] BDRip 720, 2Mvo+Dvo+Sub

salma3

19 | 4

3 ГБ


Начать новую тему Ответить на тему  [ 1 сообщение ] 




Для Мосгорсуда, Роскомнадзора и рекламодателей:: mosgorsud-torrent[собачка]yandex.ru