Торрент файл
скачать торрент магнет ссылка Добавлен: 06 авг 2014, 23:30
Размер: 4.32 ГБ
Сидеров: 189
Личеров: 8
Автор

СообщениеДобавлено: 06 авг 2014, 23:30 

Не в сети
Супермодератор
Аватара пользователя
Дата регистрации:
06 июн 2014, 07:51
Спасибо: 576 / 0
Сообщения: 2002
Информация о фильме
Название: Бэтмен: Нападение на Аркхэм
Оригинальное название: Batman: Assault on Arkham
Год выхода: 2014
Жанр: мультфильм, боевик, триллер, криминал
Режиссер: Джей Олива / Jay Сполдинг / Ethan Spaulding Oliva, Этан
В ролях: Кевин Конрой (Batman / Bruce Wayne / озвучка), Нил МакДонаф (Deadshot / Floyd Lawton / озвучка), Хинден Уолш (Harley Quinn / Harleen Quinzel / озвучка), Мэттью Грей Гублер (The Riddler / Edward Nigma / озвучка), Трой Бэйкер (The Joker / озвучка), Эрик Бауза (Security Guy, озвучка), Крис Кокс (G.C.P.D. Commissioner James Gordon, озвучка), Джон Ди Маджио (King Shark / Nanaue / Bane / озвучка), Джанкарло Эспозито (Black Spider / Eric Needham / озвучка), Дженнифер Хейл (Killer Frost / Louise Lincoln / озвучка), Мартин Джарвис (Alfred Pennyworth / озвучка), Питер Джессоп (Watch Commander, озвучка)

О фильме:
Секретная правительственная организация формирует спец группу «Суицидальный отряд», состоящую из наемников и убийц, чтобы проникнуть в психиатрическую лечебницу Аркхам и добыть похищенную, засекреченную информацию, из рук заключенного - Эдварда Нигмы «Загадочника».


Страна: США
Студия: DC Entertainment, Warner Bros. Animation, Warner Premiere
Продолжительность: 01:15:56
Перевод: Любительский многоголосый [Студия Saint Sound]

Файл
Кодек: h.264 (MKV)
Качество: BDRip 720p
Видео: AVC, 1280x720 (16:9), ~6433 kbps
Звук: русский: AC3, 2 ch, 192 kbps / английский: DTS, 6 ch, 1510 kbps
Субтитры: нет

Семпл

Общее
Уникальный идентификатор : 181422009511148095510627021223880629502 (0x887C9BAA6650B1CE86456FCCA6A11CFE)
Полное имя : E:ЗагрузкиBatman.Assault.on.Arkham.2014.L.BDRip.720p.mkv
Формат : Matroska
Версия формата : Version 4 / Version 2
Размер файла : 4,32 Гбайт
Продолжительность : 1 ч. 15 м.
Общий поток : 8137 Кбит/сек
Дата кодирования : UTC 2014-08-05 08:03:41
Программа кодирования : mkvmerge v7.1.0 ('Good Love') 64bit built on Jul 27 2014 13:06:55
Библиотека кодирования : libebml v1.3.0 + libmatroska v1.4.1

Видео
Идентификатор : 1
Формат : AVC
Формат/Информация : Advanced Video Codec
Профиль формата : High@L4.1
Параметр CABAC формата : Да
Параметр ReFrames формата : 4 кадра
Идентификатор кодека : V_MPEG4/ISO/AVC
Продолжительность : 1 ч. 15 м.
Битрейт : 6433 Кбит/сек
Ширина : 1280 пикселей
Высота : 720 пикселей
Соотношение сторон : 16:9
Режим частоты кадров : Постоянный
Частота кадров : 23,976 кадра/сек
Цветовое пространство : YUV
Субдискретизация насыщенности : 4:2:0
Битовая глубина : 8 бит
Тип развёртки : Прогрессивная
Бит/(Пиксели*Кадры) : 0.291
Размер потока : 3,33 Гбайт (77%)
Библиотека кодирования : x264 core 130 r2273 b3065e6
Настройки программы : cabac=1 / ref=1 / deblock=1:0:0 / analyse=0x3:0x113 / me=hex / subme=2 / psy=1 / psy_rd=1.00:0.00 / mixed_ref=0 / me_range=16 / chroma_me=1 / trellis=0 / 8x8dct=1 / cqm=0 / deadzone=21,11 / fast_pskip=1 / chroma_qp_offset=0 / threads=6 / lookahead_threads=2 / sliced_threads=0 / nr=0 / decimate=1 / interlaced=0 / bluray_compat=0 / constrained_intra=0 / bframes=3 / b_pyramid=2 / b_adapt=1 / b_bias=0 / direct=1 / weightb=1 / open_gop=0 / weightp=1 / keyint=240 / keyint_min=24 / scenecut=40 / intra_refresh=0 / rc_lookahead=10 / rc=abr / mbtree=1 / bitrate=6433 / ratetol=1.0 / qcomp=0.60 / qpmin=0 / qpmax=69 / qpstep=4 / vbv_maxrate=62500 / vbv_bufsize=78125 / nal_hrd=none / ip_ratio=1.40 / aq=1:1.00
Язык : English
Default : Да
Forced : Да
Основные цвета : BT.709
Характеристики трансфера : BT.709
Коэффициенты матрицы : BT.709

Аудио #1
Идентификатор : 2
Формат : AC-3
Формат/Информация : Audio Coding 3
Расширение режима : CM (complete main)
Параметр Endianness формата : Big
Идентификатор кодека : A_AC3
Продолжительность : 1 ч. 15 м.
Вид битрейта : Постоянный
Битрейт : 192 Кбит/сек
Каналы : 2 канала
Расположение каналов : Front: L R
Частота : 48,0 КГц
Битовая глубина : 16 бит
Метод сжатия : С потерями
Размер потока : 104 Мбайт (2%)
Язык : Russian
Default : Да
Forced : Да

Аудио #2
Идентификатор : 3
Формат : DTS
Формат/Информация : Digital Theater Systems
Режим : 16
Параметр Endianness формата : Big
Идентификатор кодека : A_DTS
Продолжительность : 1 ч. 15 м.
Вид битрейта : Постоянный
Битрейт : 1509 Кбит/сек
Каналы : 6 каналов
Расположение каналов : Front: L C R, Side: L R, LFE
Частота : 48,0 КГц
Битовая глубина : 24 бит
Метод сжатия : С потерями
Размер потока : 820 Мбайт (19%)
Язык : English
Default : Нет
Forced : Нет





реклама партнёра


Вернуться к началу
 Профиль Отправить личное сообщение  
 
   Похожие торренты   Автор   Торрент   Размер 
В этой теме нет новых непрочитанных сообщений. Бэтмен: Нападение на Аркхэм / Batman: Assault on Arkham [мультфильм, боевик, триллер, криминал, 2014] HDRip [Студия Saint Sound]

Dracon

457 | 11

1.37 ГБ

В этой теме нет новых непрочитанных сообщений. Бэтмен против Робина / Batman vs. Robin (Джей Олива) [Мультфильм, боевик, приключения, 2015] BDRip 720p, mvo [Чистый звук]

Dracon

43 | 2

2.26 ГБ

В этой теме нет новых непрочитанных сообщений. Бэтмен против Робина / Batman vs. Robin (Джей Олива) [Мультфильм, боевик, приключения, 2015] HDRip, mvo [Чистый звук]

Dracon

101 | 6

1.37 ГБ

В этой теме нет новых непрочитанных сообщений. Нападение на 13-й участок / Assault on Precinct 13 [Боевик, триллер, драма, криминал, 1976] BDRip 1080p, 2Mvo+2Avo+Sub

salma3

6 | 2

10.1 ГБ

В этой теме нет новых непрочитанных сообщений. Бэтмен: Убийственная шутка / Batman: The Killing Joke [Мультфильм, боевик, триллер, драма, криминал, 2016] HDRip, Mvo

salma3

1 | 1

1.36 ГБ

В этой теме нет новых непрочитанных сообщений. Безграничный Бэтмен: Хаос / Batman Unlimited: Monster Mayhem (Батч Лукич) [Мультфильм, боевик, приключения, 2015] BDRip 720p, Mvo [iTunes]

Dracon

48 | 3

2.86 ГБ

В этой теме нет новых непрочитанных сообщений. Сын Бэтмена  / Son of Batman [Мультфильм, фэнтези, боевик, драма, криминал, детектив, приключения, семейный, 2014] BDRip 720p, mvo

Dracon

0 | 2

2.86 ГБ


Начать новую тему Ответить на тему  [ 1 сообщение ] 




Для Мосгорсуда, Роскомнадзора и рекламодателей:: mosgorsud-torrent[собачка]yandex.ru