Торрент файл
скачать торрент магнет ссылка Добавлен: 06 авг 2014, 15:47
Размер: 5.59 ГБ
Сидеров: 2
Личеров: 2
Статус: (Dracon)
Автор

СообщениеДобавлено: 06 авг 2014, 15:47 

Не в сети
Зам. Админа
Аватара пользователя
Дата регистрации:
02 дек 2010, 12:39
Спасибо: 12460 / 214
Сообщения: 27968
Год выхода: 2013
Жанр: мультфильм, мюзикл, семейный
Режиссер: Уилл Финн, Дэн Ст. Пьер
В ролях: Лиа Мишель, Патрик Стюарт, Джеймс Белуши, Дэн Эйкройд, Келси Грэммер, Меган Хилти, Хью Дэнси, Оливер Платт, Бернадетт Питерс, Мартин Шорт

О фильме:
Дороти снова магическим образом переносится в страну Оз, чтобы спасти от беды ее жителей. Но оказывается, что старые друзья Дороти - Страшила, Железный Дровосек и Храбрый Лев - исчезли. Путешествуя по стране в поисках своих друзей, Дороти встречает новых попутчиков - Капитана Зефира, Фарфоровую Принцессу и филина Савву. Дороти должна помочь таким разным героям объединиться, чтобы одолеть нового злодея - шута Джестера, который хочет захватить страну Оз при помощи черной магии.

Качество: BDRip [1080p]
Видео: AVC, 1920x1080, 23,976 fps, 6 990  kbpsbit/pixel
Аудио 1: AC-3, 48 kHz, 2 ch, 192 Kbps - Russian        
Аудио 2: DTS, 48 kHz, 6 ch, 1509 Kbps - English
Продолжительность: 01:32:02
Перевод: Дублированный  [Чистый звук] Официальный дубляж.

Общее
Уникальный идентификатор                 : 233182949554518715951859489763983877050 (0xAF6D670AAED48B11AA653317A9B3E3BA)
Полное имя                               : D:Oz.Vozvrashenie.v.Izumrudniy.Gorod.2013.D.BDRip.1080.mkv
Формат                                   : Matroska
Версия формата                           : Version 4 / Version 2
Размер файла                             : 5,59 Гбайт
Продолжительность                        : 1 ч. 32 м.
Общий поток                              : 8692 Кбит/сек
Дата кодирования                         : UTC 2014-08-05 23:51:16
Программа кодирования                    : mkvmerge v7.0.0 ('Where We Going') 64bit built on Jun  9 2014 15:16:27
Библиотека кодирования                   : libebml v1.3.0 + libmatroska v1.4.1
_STATISTICS_WRITING_APP                  : mkvmerge v7.0.0 ('Where We Going') 64bit built on Jun  9 2014 15:16:27
_STATISTICS_WRITING_DATE_UTC             : 2014-08-05 23:51:16
_STATISTICS_TAGS                         : BPS DURATION NUMBER_OF_FRAMES NUMBER_OF_BYTES
DURATION                                 : 01:32:02.528000000
NUMBER_OF_FRAMES                         : 172579
NUMBER_OF_BYTES                          : 132540672

Видео
Идентификатор                            : 1
Формат                                   : AVC
Формат/Информация                        : Advanced Video Codec
Профиль формата                          : High@L4.1
Параметр CABAC формата                   : Да
Параметр ReFrames формата                : 4 кадра
Идентификатор кодека                     : V_MPEG4/ISO/AVC
Продолжительность                        : 1 ч. 32 м.
Битрейт                                  : 6990 Кбит/сек
Ширина                                   : 1920 пикселей
Высота                                   : 1080 пикселей
Соотношение сторон                       : 16:9
Режим частоты кадров                     : Постоянный
Частота кадров                           : 23,976 кадра/сек
Цветовое пространство                    : YUV
Субдискретизация насыщенности            : 4:2:0
Битовая глубина                          : 8 бит
Тип развёртки                            : Прогрессивная
Бит/(Пиксели*Кадры)                      : 0.141
Размер потока                            : 4,38 Гбайт (78%)
Библиотека кодирования                   : x264 core 142 r2453 ea0ca51
Настройки программы                      : cabac=1 / ref=4 / deblock=1:0:0 / analyse=0x3:0x133 / me=umh / subme=7 / psy=1 / psy_rd=1.00:0.00 / mixed_ref=1 / me_range=16 / chroma_me=1 / trellis=1 / 8x8dct=1 / cqm=0 / deadzone=21,11 / fast_pskip=1 / chroma_qp_offset=-2 / threads=8 / lookahead_threads=1 / sliced_threads=0 / nr=0 / decimate=1 / interlaced=0 / bluray_compat=0 / constrained_intra=0 / bframes=3 / b_pyramid=2 / b_adapt=2 / b_bias=0 / direct=3 / weightb=1 / open_gop=0 / weightp=2 / keyint=250 / keyint_min=23 / scenecut=40 / intra_refresh=0 / rc_lookahead=50 / rc=2pass / mbtree=1 / bitrate=6990 / ratetol=1.0 / qcomp=0.60 / qpmin=0 / qpmax=69 / qpstep=4 / cplxblur=20.0 / qblur=0.5 / ip_ratio=1.40 / aq=1:1.00
Язык                                     : English
Default                                  : Да
Forced                                   : Нет
_STATISTICS_WRITING_APP                  : mkvmerge v7.0.0 ('Where We Going') 64bit built on Jun  9 2014 15:16:27
_STATISTICS_WRITING_DATE_UTC             : 2014-08-05 23:51:16
_STATISTICS_TAGS                         : BPS DURATION NUMBER_OF_FRAMES NUMBER_OF_BYTES
DURATION                                 : 01:32:02.517000000
NUMBER_OF_FRAMES                         : 132408
NUMBER_OF_BYTES                          : 4823984102

Аудио #1
Идентификатор                            : 2
Формат                                   : AC-3
Формат/Информация                        : Audio Coding 3
Расширение режима                        : CM (complete main)
Параметр Endianness формата              : Big
Идентификатор кодека                     : A_AC3
Продолжительность                        : 1 ч. 32 м.
Вид битрейта                             : Постоянный
Битрейт                                  : 192 Кбит/сек
Каналы                                   : 2 канала
Расположение каналов                     : Front: L R
Частота                                  : 48,0 КГц
Битовая глубина                          : 16 бит
Метод сжатия                             : С потерями
Размер потока                            : 126 Мбайт (2%)
Default                                  : Да
Forced                                   : Нет

Аудио #2
Идентификатор                            : 3
Формат                                   : DTS
Формат/Информация                        : Digital Theater Systems
Режим                                    : 16
Параметр Endianness формата              : Big
Идентификатор кодека                     : A_DTS
Продолжительность                        : 1 ч. 32 м.
Вид битрейта                             : Постоянный
Битрейт                                  : 1509 Кбит/сек
Каналы                                   : 6 каналов
Расположение каналов                     : Front: L C R, Side: L R, LFE
Частота                                  : 48,0 КГц
Битовая глубина                          : 24 бит
Метод сжатия                             : С потерями
Размер потока                            : 993 Мбайт (17%)
Язык                                     : English
Default                                  : Нет
Forced                                   : Нет

Меню
00:00:00.000                             : en:00:00:00.000
00:03:40.846                             : en:00:03:40.846
00:05:14.731                             : en:00:05:14.731
00:08:57.036                             : en:00:08:57.036
00:12:02.305                             : en:00:12:02.305
00:15:57.623                             : en:00:15:57.623
00:19:32.630                             : en:00:19:32.630
00:22:26.971                             : en:00:22:26.971
00:25:17.266                             : en:00:25:17.266
00:28:02.055                             : en:00:28:02.055
00:29:57.254                             : en:00:29:57.254
00:33:34.012                             : en:00:33:34.012
00:35:27.167                             : en:00:35:27.167
00:38:47.534                             : en:00:38:47.534
00:43:44.956                             : en:00:43:44.956
00:46:06.389                             : en:00:46:06.389
00:48:36.622                             : en:00:48:36.622
00:51:07.439                             : en:00:51:07.439
00:54:42.738                             : en:00:54:42.738
00:56:01.817                             : en:00:56:01.817
00:59:25.854                             : en:00:59:25.854
01:04:15.643                             : en:01:04:15.643
01:06:54.844                             : en:01:06:54.844
01:11:13.936                             : en:01:11:13.936
01:14:10.905                             : en:01:14:10.905
01:17:43.242                             : en:01:17:43.242
01:21:38.102                             : en:01:21:38.102
01:24:06.041                             : en:01:24:06.041







реклама партнёра


Вернуться к началу
 Профиль  
 
   Похожие торренты   Автор   Торрент   Размер 
В этой теме нет новых непрочитанных сообщений. Оз: Возвращение в Изумрудный Город / Legends of Oz: Dorothy's Return [мультфильм, мюзикл, семейный, 2013] BDRip 720p, dub [Чистый звук]

Dracon

3 | 2

3.4 ГБ

В этой теме нет новых непрочитанных сообщений. Оз: Возвращение в Изумрудный Город / Legends of Oz: Dorothy's Return [мультфильм, мюзикл, семейный, 2014] HDRip, dub [Чистый звук]

Dracon

472 | 18

1.37 ГБ

В этой теме нет новых непрочитанных сообщений. Оз: Возвращение в Изумрудный Город / Legends of Oz: Dorothy's Return [мультфильм, мюзикл, семейный, 2013] HDTVRip, dub [Звук с TS]

Dracon

456 | 12

1.37 ГБ

В этой теме нет новых непрочитанных сообщений. Оз: Возвращение в Изумрудный Город / Legends of Oz: Dorothy's Return (Уилл Финн, Дэн Ст. Пьер) [2013, мультфильм, мюзикл, семейный, HDTVRip] Dub Звук с TS

Nickolas3435

169 | 10

703.03 МБ

В этой теме нет новых непрочитанных сообщений. Оз: Возвращение в Изумрудный Город / Legends of Oz: Dorothy's Return [мультфильм, мюзикл, семейный, 2013] BDRip-AVC, Dub [лицензия]

Dracon

104 | 4

2.15 ГБ

В этой теме нет новых непрочитанных сообщений. Оз: Возвращение в Изумрудный Город / Legends of Oz: Dorothy's Return [мультфильм, мюзикл, семейный, 2013] Blu-Ray Remux 1080p, Dub [лицензия]

Dracon

41 | 5

20.72 ГБ

В этой теме нет новых непрочитанных сообщений. Оз: Возвращение в Изумрудный Город / Legends of Oz: Dorothy's Return [мультфильм, мюзикл, семейный, 2013] BDRip-AVC, Dub [лицензия | 3D-Video]

Dracon

378 | 29

7.41 ГБ


Начать новую тему Ответить на тему  [ 1 сообщение ] 




Для Мосгорсуда, Роскомнадзора и рекламодателей:: mosgorsud-torrent[собачка]yandex.ru