Торрент файл
Автор

СообщениеДобавлено: 10 июл 2014, 23:41 

Не в сети
Супермодератор
Аватара пользователя
Дата регистрации:
06 июн 2014, 07:51
Спасибо: 576 / 0
Сообщения: 2002
Информация о фильме
Название : Драконы: Защитники Олуха
Оригинальное название : Dragons: Defenders of Berk
Год выхода : 2013
Страна : США
Производство : DreamWorks Animation SKG
Жанр : фэнтези, приключения, комедия, семейный
Режиссеры : Энтони Белл / Anthony Bell, Джон Санфорд / John Sanford, Луи Дел Кармен / Louie del Carmen
Роли озвучивали : Джей Барушель, Америка Феррера, Кристофер Минц-Плассе, ТиДжей Миллер, Нолан Норт, Крис Эджерли, Зак Перлман, Эндри Вермелен, Тим Конуэй, Томас Ф. Уилсон, Стивен Рут, Марк Хэмилл
Роли дублировали : Андрей Лёвин (Иккинг), Валерий Соловьев (Стоик), Алексей Макрецкий (Плевака), Софья Ануфриева (Астрид), Михаил Хрусталёв (Сморкала), Игорь Виноградов (Рыбьеног), Александр Разбаш (Задирака), Марианна Талалакина (Семенова) (Забияка)


Описание : Приключения драконов и всадников Олуха продолжаются. В новом сезоне юные викинги берут на себя ответственность по защите Олуха. Они формируют тайный Драконий Клуб, чтобы сражаться со старыми врагами с новыми знаниями о драконах и новыми лётными навыками, и начинают становиться из опытных всадников отважными защитниками.
Вместе с храбрыми друзьями - людьми, и верными союзниками - драконами, Иккинг и Беззубик выступят против старых неприятелей и новых врагов. Их ожидают захватывающие приключения, они столкнутся с редкими и дикими драконами, а также с врагом, способным поставить под угрозу само существование острова Олух.

Сериал служит мостом, связывающим фильм "Как приручить дракона" с его будущим полнометражным продолжением "Как приручить дракона 2", создатели которого тесно работают с создателями сериала. Вследствие всего этого в самом "Как приручить дракона 2" будут отсылки и сюрпризы, которые поймут только те, кто смотрел сериал. Премьера "Как приручить дракона 2" в России состоится 12 июня 2014-го года.
Продолжительность : ~22 мин. серия
Перевод : Профессиональный (полное дублирование) [НЕВАФИЛЬМ]

Файл
Формат видео : AVI
Качество : WEB-DLRip
Видео : XVID, 720x400 (1.80:1), 23.976 fps, ~1594 kbps avg, 0.23 bit/pixel
Звук 1: AC3, 48.0 KHz, 2 ch, ~192 Kbps (Русский)
Звук 2: AC3, 48.0 KHz, 2 ch, ~192 Kbps (Английский)
Субтитры : Русские (Крукс, Hanway, Serimon), английские


1. Живи и летай (Live and Let Fly)
2. Железный Громмель (The Iron Gronckle)
3. Ночная ярость (The Night and the Fury)
4. Враг под ногами (Tunnel Vision)
5. Остров Огненных Драконов (Race to Fireworm Island)
6. Испытание ужасом (Fright of Passage)
7. Последний в соревновании (Worst in Show)
8. Зверский аппетит (Appetite for Destruction)
9. Капкан для Пристеголова (Zippleback Down)

Общее
Полное имя : E:Dragons - Defenders of Berk [Season 2] (2013-2014) WEB-DLRip [Rus, Eng]S02E01 - Live and Let Fly.avi
Формат : AVI
Формат/Информация : Audio Video Interleave
Размер файла : 323 Мбайт
Продолжительность : 22 м.
Общий поток : 1994 Кбит/сек
Программа кодирования : VirtualDubModUkr 1.5.10.2 (build 2542/release)
Библиотека кодирования : VirtualDubMod build 2542/release

Видео
Идентификатор : 0
Формат : MPEG-4 Visual
Профиль формата : Advanced Simple@L5
Параметр BVOP формата : 2
Параметр QPel формата : Нет
Параметр GMC формата : Без точки перехода
Параметр матрицы формата : Default (MPEG)
Идентификатор кодека : XVID
Идентификатор кодека/Подсказка : XviD
Продолжительность : 22 м.
Битрейт : 1595 Кбит/сек
Ширина : 720 пикселей
Высота : 400 пикселей
Соотношение сторон : 16:9
Соотношение сторон в оригинале : 16:9
Частота кадров : 23,976 кадра/сек
Цветовое пространство : YUV
Субдискретизация насыщенности : 4:2:0
Битовая глубина : 8 бит
Тип развёртки : Прогрессивная
Метод сжатия : С потерями
Бит/(Пиксели*Кадры) : 0.231
Размер потока : 258 Мбайт (80%)
Библиотека кодирования : XviD 64

Аудио #1
Идентификатор : 1
Формат : AC-3
Формат/Информация : Audio Coding 3
Расширение режима : CM (complete main)
Параметр Endianness формата : Big
Идентификатор кодека : 2000
Продолжительность : 22 м.
Вид битрейта : Постоянный
Битрейт : 192 Кбит/сек
Каналы : 2 канала
Расположение каналов : Front: L R
Частота : 48,0 КГц
Битовая глубина : 16 бит
Метод сжатия : С потерями
Размер потока : 31,1 Мбайт (10%)
Выравнивание : Разделение по промежуткам
Продолжительность промежутка : 42 мс. (1,00 видеокадр)
Время предзагрузки промежутка : 500 мс.

Аудио #2
Идентификатор : 2
Формат : AC-3
Формат/Информация : Audio Coding 3
Расширение режима : CM (complete main)
Параметр Endianness формата : Big
Идентификатор кодека : 2000
Продолжительность : 22 м.
Вид битрейта : Постоянный
Битрейт : 192 Кбит/сек
Каналы : 2 канала
Расположение каналов : Front: L R
Частота : 48,0 КГц
Битовая глубина : 16 бит
Метод сжатия : С потерями
Размер потока : 31,1 Мбайт (10%)
Выравнивание : Разделение по промежуткам
Продолжительность промежутка : 42 мс. (1,00 видеокадр)
Время предзагрузки промежутка : 500 мс.





реклама партнёра


Вернуться к началу
 Профиль Отправить личное сообщение  
 
   Похожие торренты   Автор   Торрент   Размер 
В этой теме нет новых непрочитанных сообщений. Драконы: Защитники Олуха / Dragons: Defenders of Berk [S02x01-14 из 20] (Энтони Белл, Джон Санфорд, Луи Дел Кармен) [2013, фэнтези, приключения, комедия, семейный, WEB-DLRip]

Nickolas3435

141 | 68

4.41 ГБ

В этой теме нет новых непрочитанных сообщений. Близнецы-драконы / Twin dragons / Shuang long hui [Боевик, комедия, 1992] BDRip 720p, Mvo

salma3

81 | 5

2.18 ГБ

В этой теме нет новых непрочитанных сообщений. Стар против Сил Зла / Star vs the Forces of Evil [s02x01-11 из 14)] (Фантастика, комедия, приключения, мультсериал, 2016) WEB-DLRip от ExKinoRay | L2

marya111

0 | 0

3.06 ГБ

В этой теме нет новых непрочитанных сообщений. Стар против Сил Зла / Star vs the Forces of Evil [s02x01-11 из 14)] (Фантастика, комедия, приключения, мультсериал, 2016) WEB-DLRip от ExKinoRay | L2

marya111

0 | 0

3.06 ГБ

В этой теме нет новых непрочитанных сообщений. Драконы навсегда / Dragons Forever / Fei lung mang jeung [комедия, боевые искусства, 1988] BDRip 1080p, 2Mvo+2Avo

salma3

17 | 7

9.1 ГБ

В этой теме нет новых непрочитанных сообщений. Холодное сердце / Frozen [Мультфильм, фэнтези, комедия, приключения, семейный, 2013] WEB-DLRip, Dub [Чистый звук]

Dracon

356 | 4

1.46 ГБ

В этой теме нет новых непрочитанных сообщений. Головоломка / Inside Out (Пит Доктер, Роналдо Дель Кармен) [мультфильм, драма, комедия, семейный, 2015] WEB-DLRip, Dub [iTunes]

Dracon

4852 | 563

1.37 ГБ


Начать новую тему Ответить на тему  [ 1 сообщение ] 




Для Мосгорсуда, Роскомнадзора и рекламодателей:: mosgorsud-torrent[собачка]yandex.ru